<?xml version="1.0" standalone="no"?>
<!DOCTYPE svg PUBLIC "-//W3C//DTD SVG 1.1//EN" "http://www.w3.org/Graphics/SVG/1.1/DTD/svg11.dtd" >
<svg>
<metadata>
Created by FontForge 20120731 at Mon Apr 29 13:56:32 2019
 By www-data
Copyright \(c\) 2016 by Radomir Tinkov. All rights reserved.
</metadata>
<defs>
<font id="Gilroy-ExtraBold" horiz-adv-x="580" >
  <font-face 
    font-family="Gilroy ExtraBold"
    font-weight="800"
    font-stretch="normal"
    units-per-em="1000"
    panose-1="0 0 9 0 0 0 0 0 0 0"
    ascent="800"
    descent="-200"
    x-height="500"
    cap-height="700"
    bbox="-447 -270 1124 980"
    underline-thickness="50"
    underline-position="-50"
    unicode-range="U+0020-FB02"
  />
<missing-glyph horiz-adv-x="500" 
d="M410 800v-1000h-317v1000h317zM333 733h-165v-33h65v-37h-66v-33h166v33h-66v37h66v33zM267 604h-100v-104h166v34h-66v70zM233 570v-36h-33v36h33zM333 473h-166v-33h66v-37h-66v-33h100v70h66v33zM333 413h-33v-66h-133v-34h166v100zM333 291h-100v-56h34v23h33v-47
h-100v80h-33v-113h166v113zM333 118h-166v-113h166v113zM300 85v-47h-100v47h100zM333 -18h-166v-33h70l-70 -47v-33h166v33h-102l70 47h32v33z" />
    <glyph glyph-name="f_f" unicode="ff" horiz-adv-x="610" 
d="M610 580c-56 5 -93 -12 -93 -70v-10h93v-144h-93v-356h-150v356h-130v-356h-150v356h-67v144h67c0 140 77 224 243 214v-144c-56 5 -93 -12 -93 -70h130v10c0 140 77 224 243 214v-144z" />
    <glyph glyph-name="f_f_i" unicode="ffi" horiz-adv-x="850" 
d="M795 500v-500h-150v356h-128v-356h-150v356h-130v-356h-150v356h-67v144h67c0 140 77 224 243 214v-144c-56 5 -93 -12 -93 -70h130v10c0 140 77 214 243 214c41 0 82 -5 125 -14v-138c-45 5 -87 8 -125 8c-56 0 -93 -12 -93 -70v-10h278z" />
    <glyph glyph-name="f_f_l" unicode="ffl" horiz-adv-x="850" 
d="M610 724c71 0 127 -11 185 -24v-700h-150v593c-12 1 -24 1 -35 1c-56 0 -93 -26 -93 -84v-10h73v-144h-73v-356h-150v356h-130v-356h-150v356h-67v144h67c0 140 77 224 243 214v-144c-56 5 -93 -12 -93 -70h130v10c0 140 77 214 243 214z" />
    <glyph glyph-name="fi" unicode="fi" horiz-adv-x="570" 
d="M515 500v-500h-150v356h-128v-356h-150v356h-67v144h67c0 140 77 214 243 214c41 0 82 -5 125 -14v-138c-45 5 -87 8 -125 8c-56 0 -93 -12 -93 -70h278z" />
    <glyph glyph-name="fl" unicode="fl" horiz-adv-x="570" 
d="M330 714c71 0 127 -11 185 -24v-690h-150v583c-12 1 -24 1 -35 1c-56 0 -93 -26 -93 -84h73v-144h-73v-356h-150v356h-67v144h67c0 140 77 214 243 214z" />
    <glyph glyph-name=".notdef" horiz-adv-x="500" 
d="M410 800v-1000h-317v1000h317zM333 733h-165v-33h65v-37h-66v-33h166v33h-66v37h66v33zM267 604h-100v-104h166v34h-66v70zM233 570v-36h-33v36h33zM333 473h-166v-33h66v-37h-66v-33h100v70h66v33zM333 413h-33v-66h-133v-34h166v100zM333 291h-100v-56h34v23h33v-47
h-100v80h-33v-113h166v113zM333 118h-166v-113h166v113zM300 85v-47h-100v47h100zM333 -18h-166v-33h70l-70 -47v-33h166v33h-102l70 47h32v33z" />
    <glyph glyph-name="A" unicode="A" horiz-adv-x="680" 
d="M505 0l-35 110h-260l-35 -110h-175l238 700h204l238 -700h-175zM258 260h164l-82 257z" />
    <glyph glyph-name="Aacute" unicode="&#xc1;" horiz-adv-x="680" 
d="M510 900l-116 -140h-144l80 140h180zM505 0l-35 110h-260l-35 -110h-175l238 700h204l238 -700h-175zM258 260h164l-82 257z" />
    <glyph glyph-name="Abreve" unicode="&#x102;" horiz-adv-x="680" 
d="M340 742c-113 0 -175 55 -175 150h132c0 -29 15 -46 43 -46s43 17 43 46h132c0 -95 -62 -150 -175 -150zM505 0l-35 110h-260l-35 -110h-175l238 700h204l238 -700h-175zM258 260h164l-82 257z" />
    <glyph glyph-name="Acircumflex" unicode="&#xc2;" horiz-adv-x="680" 
d="M335 805l-35 -55h-145l106 150h148l106 -150h-145zM505 0l-35 110h-260l-35 -110h-175l238 700h204l238 -700h-175zM258 260h164l-82 257z" />
    <glyph glyph-name="Adieresis" unicode="&#xc4;" horiz-adv-x="680" 
d="M245 740c-41 0 -75 34 -75 75s34 75 75 75s75 -34 75 -75s-34 -75 -75 -75zM435 740c-41 0 -75 34 -75 75s34 75 75 75s75 -34 75 -75s-34 -75 -75 -75zM505 0l-35 110h-260l-35 -110h-175l238 700h204l238 -700h-175zM258 260h164l-82 257z" />
    <glyph glyph-name="Agrave" unicode="&#xc0;" horiz-adv-x="680" 
d="M430 760h-144l-116 140h180zM505 0l-35 110h-260l-35 -110h-175l238 700h204l238 -700h-175zM258 260h164l-82 257z" />
    <glyph glyph-name="Amacron" unicode="&#x100;" horiz-adv-x="680" 
d="M490 879v-120h-300v120h300zM505 0l-35 110h-260l-35 -110h-175l238 700h204l238 -700h-175zM258 260h164l-82 257z" />
    <glyph glyph-name="Aogonek" unicode="&#x104;" horiz-adv-x="680" 
d="M657 -111c6 -1 14 1 23 4v-90c-27 -11 -52 -17 -88 -17c-55 0 -100 28 -100 91c0 38 26 83 64 123h-51l-35 110h-260l-35 -110h-175l238 700h204l238 -700c-29 -32 -45 -64 -45 -85c-1 -16 7 -26 22 -26zM258 260h164l-82 257z" />
    <glyph glyph-name="Aring" unicode="&#xc5;" horiz-adv-x="680" 
d="M505 0l-35 110h-260l-35 -110h-175l235 691c-18 21 -28 49 -28 79c0 71 55 125 133 125c80 0 133 -54 133 -125c0 -31 -10 -58 -28 -80l235 -690h-175zM340 804c-23 0 -35 -15 -35 -34s12 -34 35 -34c24 0 36 15 36 34s-12 34 -36 34zM258 260h164l-82 257z" />
    <glyph glyph-name="Atilde" unicode="&#xc3;" horiz-adv-x="680" 
d="M323 777c-34 21 -43 16 -43 -24h-120c0 171 105 189 196 133c34 -21 43 -16 43 24h120c0 -171 -105 -189 -196 -133zM505 0l-35 110h-260l-35 -110h-175l238 700h204l238 -700h-175zM258 260h164l-82 257z" />
    <glyph glyph-name="AE" unicode="&#xc6;" horiz-adv-x="880" 
d="M605 154h245v-154h-400v110h-206l-64 -110h-180l409 700h436v-154h-240v-116h215v-152h-215v-124zM331 260h119v204z" />
    <glyph glyph-name="B" unicode="B" horiz-adv-x="600" 
d="M494 363c52 -33 86 -87 86 -158c0 -124 -101 -205 -226 -205h-294v700h274c122 0 221 -79 221 -200c0 -58 -23 -104 -61 -137zM334 550h-114v-124h114c36 0 61 26 61 62s-24 62 -61 62zM354 150c40 0 66 28 66 67s-26 67 -66 67h-134v-134h134z" />
    <glyph glyph-name="C" unicode="C" horiz-adv-x="719" 
d="M394 -14c-211 0 -364 158 -364 364s153 364 364 364c127 0 239 -63 300 -162l-138 -80c-31 54 -91 86 -162 86c-124 0 -204 -83 -204 -208s80 -208 204 -208c71 0 132 32 162 86l138 -80c-60 -99 -172 -162 -300 -162z" />
    <glyph glyph-name="Cacute" unicode="&#x106;" horiz-adv-x="719" 
d="M304 770h144l116 140h-180zM394 -14c-211 0 -364 158 -364 364s153 364 364 364c127 0 239 -63 300 -162l-138 -80c-31 54 -91 86 -162 86c-124 0 -204 -83 -204 -208s80 -208 204 -208c71 0 132 32 162 86l138 -80c-60 -99 -172 -162 -300 -162z" />
    <glyph glyph-name="Ccaron" unicode="&#x10c;" horiz-adv-x="719" 
d="M315 760l-106 150h145l35 -55l35 55h145l-106 -150h-148zM394 142c71 0 132 32 162 86l138 -80c-60 -99 -172 -162 -300 -162c-211 0 -364 158 -364 364s153 364 364 364c127 0 239 -63 300 -162l-138 -80c-31 54 -91 86 -162 86c-124 0 -204 -83 -204 -208
s80 -208 204 -208z" />
    <glyph glyph-name="Ccedilla" unicode="&#xc7;" horiz-adv-x="719" 
d="M394 142c71 0 132 32 162 86l138 -80c-49 -81 -134 -138 -233 -156v-38c27 -7 63 -29 63 -77c0 -63 -57 -103 -225 -93v104c65 -5 95 1 95 14c0 12 -21 17 -53 20v67c-183 24 -311 173 -311 361c0 206 153 364 364 364c127 0 239 -63 300 -162l-138 -80
c-31 54 -91 86 -162 86c-124 0 -204 -83 -204 -208s80 -208 204 -208z" />
    <glyph glyph-name="Cdotaccent" unicode="&#x10a;" horiz-adv-x="719" 
d="M394 755c-46 0 -85 39 -85 85s39 85 85 85s85 -39 85 -85s-39 -85 -85 -85zM394 -14c-211 0 -364 158 -364 364s153 364 364 364c127 0 239 -63 300 -162l-138 -80c-31 54 -91 86 -162 86c-124 0 -204 -83 -204 -208s80 -208 204 -208c71 0 132 32 162 86l138 -80
c-60 -99 -172 -162 -300 -162z" />
    <glyph glyph-name="D" unicode="D" horiz-adv-x="710" 
d="M340 700c193 0 340 -152 340 -350s-147 -350 -340 -350h-280v700h280zM340 154c110 0 186 76 186 196s-76 196 -186 196h-120v-392h120z" />
    <glyph glyph-name="Eth" unicode="&#xd0;" horiz-adv-x="750" 
d="M380 700c193 0 340 -152 340 -350s-147 -350 -340 -350h-280v268h-80v144h80v288h280zM380 154c110 0 186 76 186 196s-76 196 -186 196h-120v-134h140v-144h-140v-114h120z" />
    <glyph glyph-name="Dcaron" unicode="&#x10e;" horiz-adv-x="710" 
d="M251 750l-106 150h145l35 -55l35 55h145l-106 -150h-148zM340 700c193 0 340 -152 340 -350s-147 -350 -340 -350h-280v700h280zM340 154c110 0 186 76 186 196s-76 196 -186 196h-120v-392h120z" />
    <glyph glyph-name="Dcroat" unicode="&#x110;" horiz-adv-x="750" 
d="M380 700c193 0 340 -152 340 -350s-147 -350 -340 -350h-280v268h-80v144h80v288h280zM380 154c110 0 186 76 186 196s-76 196 -186 196h-120v-134h140v-144h-140v-114h120z" />
    <glyph glyph-name="E" unicode="E" horiz-adv-x="530" 
d="M220 154h280v-154h-440v700h435v-154h-275v-116h250v-152h-250v-124z" />
    <glyph glyph-name="Eacute" unicode="&#xc9;" horiz-adv-x="530" 
d="M448 900l-116 -140h-144l80 140h180zM220 154h280v-154h-440v700h435v-154h-275v-116h250v-152h-250v-124z" />
    <glyph glyph-name="Ecaron" unicode="&#x11a;" horiz-adv-x="530" 
d="M199 750l-106 150h145l35 -55l35 55h145l-106 -150h-148zM220 154h280v-154h-440v700h435v-154h-275v-116h250v-152h-250v-124z" />
    <glyph glyph-name="Ecircumflex" unicode="&#xca;" horiz-adv-x="530" 
d="M273 805l-35 -55h-145l106 150h148l106 -150h-145zM220 154h280v-154h-440v700h435v-154h-275v-116h250v-152h-250v-124z" />
    <glyph glyph-name="Edieresis" unicode="&#xcb;" horiz-adv-x="530" 
d="M183 740c-41 0 -75 34 -75 75s34 75 75 75s75 -34 75 -75s-34 -75 -75 -75zM373 740c-41 0 -75 34 -75 75s34 75 75 75s75 -34 75 -75s-34 -75 -75 -75zM220 154h280v-154h-440v700h435v-154h-275v-116h250v-152h-250v-124z" />
    <glyph glyph-name="Edotaccent" unicode="&#x116;" horiz-adv-x="530" 
d="M278 745c-46 0 -85 39 -85 85s39 85 85 85s85 -39 85 -85s-39 -85 -85 -85zM220 154h280v-154h-440v700h435v-154h-275v-116h250v-152h-250v-124z" />
    <glyph glyph-name="Egrave" unicode="&#xc8;" horiz-adv-x="530" 
d="M368 760h-144l-116 140h180zM220 154h280v-154h-440v700h435v-154h-275v-116h250v-152h-250v-124z" />
    <glyph glyph-name="Emacron" unicode="&#x112;" horiz-adv-x="530" 
d="M428 879v-120h-300v120h300zM220 154h280v-154h-440v700h435v-154h-275v-116h250v-152h-250v-124z" />
    <glyph glyph-name="Eogonek" unicode="&#x118;" horiz-adv-x="530" 
d="M500 0c-29 -32 -45 -64 -45 -85c-1 -16 7 -26 22 -26c6 -1 14 1 23 4v-90c-27 -11 -52 -17 -88 -17c-55 0 -100 28 -100 91c0 38 26 83 64 123h-316v700h435v-154h-275v-116h250v-152h-250v-124h280v-154z" />
    <glyph glyph-name="F" unicode="F" horiz-adv-x="520" 
d="M485 546h-265v-135h260v-154h-260v-257h-160v700h425v-154z" />
    <glyph glyph-name="G" unicode="G" horiz-adv-x="783" 
d="M753 390v-60c0 -214 -149 -344 -345 -344c-220 0 -378 162 -378 363c0 203 161 365 367 365c134 0 247 -66 306 -160l-136 -78c-29 46 -92 82 -171 82c-118 0 -206 -87 -206 -210c0 -119 84 -206 220 -206c93 0 154 41 179 108h-187v140h351z" />
    <glyph glyph-name="Gbreve" unicode="&#x11e;" horiz-adv-x="783" 
d="M399 752c-113 0 -175 55 -175 150h132c0 -29 15 -46 43 -46s43 17 43 46h132c0 -95 -62 -150 -175 -150zM753 390v-60c0 -214 -149 -344 -345 -344c-220 0 -378 162 -378 363c0 203 161 365 367 365c134 0 247 -66 306 -160l-136 -78c-29 46 -92 82 -171 82
c-118 0 -206 -87 -206 -210c0 -119 84 -206 220 -206c93 0 154 41 179 108h-187v140h351z" />
    <glyph glyph-name="Gcommaaccent" unicode="&#x122;" horiz-adv-x="783" 
d="M753 390v-60c0 -214 -149 -344 -345 -344c-220 0 -378 162 -378 363c0 203 161 365 367 365c134 0 247 -66 306 -160l-136 -78c-29 46 -92 82 -171 82c-118 0 -206 -87 -206 -210c0 -119 84 -206 220 -206c93 0 154 41 179 108h-187v140h351zM327 -270l10 210h140
l-30 -210h-120z" />
    <glyph glyph-name="Gdotaccent" unicode="&#x120;" horiz-adv-x="783" 
d="M399 755c-46 0 -85 39 -85 85s39 85 85 85s85 -39 85 -85s-39 -85 -85 -85zM753 390v-60c0 -214 -149 -344 -345 -344c-220 0 -378 162 -378 363c0 203 161 365 367 365c134 0 247 -66 306 -160l-136 -78c-29 46 -92 82 -171 82c-118 0 -206 -87 -206 -210
c0 -119 84 -206 220 -206c93 0 154 41 179 108h-187v140h351z" />
    <glyph glyph-name="H" unicode="H" horiz-adv-x="660" 
d="M440 700h160v-700h-160v278h-220v-278h-160v700h160v-268h220v268z" />
    <glyph glyph-name="Hbar" unicode="&#x126;" horiz-adv-x="700" 
d="M680 613v-116h-60v-497h-160v253h-220v-253h-160v497h-60v116h60v87h160v-87h220v87h160v-87h60zM460 407v90h-220v-90h220z" />
    <glyph glyph-name="I" unicode="I" horiz-adv-x="280" 
d="M60 700h160v-700h-160v700z" />
    <glyph glyph-name="Iacute" unicode="&#xcd;" horiz-adv-x="280" 
d="M50 760h144l116 140h-180zM60 700h160v-700h-160v700z" />
    <glyph glyph-name="Icircumflex" unicode="&#xce;" horiz-adv-x="280" 
d="M135 805l-35 -55h-145l106 150h148l106 -150h-145zM60 0v700h160v-700h-160z" />
    <glyph glyph-name="Idieresis" unicode="&#xcf;" horiz-adv-x="280" 
d="M45 740c-41 0 -75 34 -75 75s34 75 75 75s75 -34 75 -75s-34 -75 -75 -75zM235 740c-41 0 -75 34 -75 75s34 75 75 75s75 -34 75 -75s-34 -75 -75 -75zM60 700h160v-700h-160v700z" />
    <glyph glyph-name="Idotaccent" unicode="&#x130;" horiz-adv-x="280" 
d="M140 745c-46 0 -85 39 -85 85s39 85 85 85s85 -39 85 -85s-39 -85 -85 -85zM60 700h160v-700h-160v700z" />
    <glyph glyph-name="Igrave" unicode="&#xcc;" horiz-adv-x="280" 
d="M230 760l-80 140h-180l116 -140h144zM60 700h160v-700h-160v700z" />
    <glyph glyph-name="Imacron" unicode="&#x12a;" horiz-adv-x="280" 
d="M-10 759v120h300v-120h-300zM60 700h160v-700h-160v700z" />
    <glyph glyph-name="Iogonek" unicode="&#x12e;" horiz-adv-x="280" 
d="M212 -111c6 -1 14 1 23 4v-90c-27 -11 -52 -17 -88 -17c-55 0 -100 28 -100 91c0 38 19 83 49 123h-36v700h160v-700c-21 -32 -30 -64 -30 -85c-1 -16 7 -26 22 -26z" />
    <glyph glyph-name="J" unicode="J" horiz-adv-x="574" 
d="M267 -14c-111 0 -191 47 -237 136l139 80c22 -39 45 -60 99 -60c70 0 91 40 91 83v475h160v-475c0 -154 -108 -239 -252 -239z" />
    <glyph glyph-name="K" unicode="K" horiz-adv-x="626" 
d="M626 0h-182l-224 324v-324h-160v700h160v-304l214 304h182l-236 -341z" />
    <glyph glyph-name="Kcommaaccent" unicode="&#x136;" horiz-adv-x="626" 
d="M380 359l246 -359h-182l-224 324v-324h-160v700h160v-304l214 304h182zM235 -270l10 210h140l-30 -210h-120z" />
    <glyph glyph-name="L" unicode="L" horiz-adv-x="480" 
d="M220 154h250v-154h-410v700h160v-546z" />
    <glyph glyph-name="Lacute" unicode="&#x139;" horiz-adv-x="480" 
d="M322 900l-116 -140h-144l80 140h180zM220 154h250v-154h-410v700h160v-546z" />
    <glyph glyph-name="Lcaron" unicode="&#x13d;" horiz-adv-x="480" 
d="M220 154h250v-154h-410v700h160v-546zM431 700l-30 -190h-130l10 190h150z" />
    <glyph glyph-name="Lcommaaccent" unicode="&#x13b;" horiz-adv-x="480" 
d="M220 154h250v-154h-410v700h160v-546zM198 -270l10 210h140l-30 -210h-120z" />
    <glyph glyph-name="Lslash" unicode="&#x141;" horiz-adv-x="500" 
d="M240 154h250v-154h-410v199l-60 -36v163l60 36v338h160v-243l120 72v-163l-120 -72v-140z" />
    <glyph glyph-name="M" unicode="M" horiz-adv-x="820" 
d="M760 700v-700h-160v407l-181 -297h-18l-181 297v-407h-160v700h160l190 -311l190 311h160z" />
    <glyph glyph-name="N" unicode="N" horiz-adv-x="670" 
d="M450 700h160v-700h-120l-270 380v-380h-160v700h120l270 -380v380z" />
    <glyph glyph-name="Nacute" unicode="&#x143;" horiz-adv-x="670" 
d="M235 760h144l116 140h-180zM450 700h160v-700h-120l-270 380v-380h-160v700h120l270 -380v380z" />
    <glyph glyph-name="Ncaron" unicode="&#x147;" horiz-adv-x="670" 
d="M246 750l-106 150h145l35 -55l35 55h145l-106 -150h-148zM450 700h160v-700h-120l-270 380v-380h-160v700h120l270 -380v380z" />
    <glyph glyph-name="Ncommaaccent" unicode="&#x145;" horiz-adv-x="670" 
d="M450 700h160v-700h-120l-270 380v-380h-160v700h120l270 -380v380zM383 -270l30 210h-140l-10 -210h120z" />
    <glyph glyph-name="Eng" unicode="&#x14a;" horiz-adv-x="670" 
d="M450 700h160v-700c0 -131 -82 -210 -240 -200v145c53 0 80 16 80 65v46l-230 324v-380h-160v700h120l270 -380v380z" />
    <glyph glyph-name="Ntilde" unicode="&#xd1;" horiz-adv-x="670" 
d="M145 753c0 171 105 189 196 133c34 -21 43 -16 43 24h120c0 -171 -105 -189 -196 -133c-34 21 -43 16 -43 -24h-120zM450 700h160v-700h-120l-270 380v-380h-160v700h120l270 -380v380z" />
    <glyph glyph-name="O" unicode="O" horiz-adv-x="788" 
d="M394 -14c-201 0 -364 158 -364 364s163 364 364 364s364 -158 364 -364s-163 -364 -364 -364zM394 142c114 0 204 83 204 208s-90 208 -204 208s-204 -83 -204 -208s90 -208 204 -208z" />
    <glyph glyph-name="Oacute" unicode="&#xd3;" horiz-adv-x="788" 
d="M304 770h144l116 140h-180zM394 -14c-201 0 -364 158 -364 364s163 364 364 364s364 -158 364 -364s-163 -364 -364 -364zM394 142c114 0 204 83 204 208s-90 208 -204 208s-204 -83 -204 -208s90 -208 204 -208z" />
    <glyph glyph-name="Ocircumflex" unicode="&#xd4;" horiz-adv-x="788" 
d="M389 815l-35 -55h-145l106 150h148l106 -150h-145zM394 714c201 0 364 -158 364 -364s-163 -364 -364 -364s-364 158 -364 364s163 364 364 364zM394 142c114 0 204 83 204 208s-90 208 -204 208s-204 -83 -204 -208s90 -208 204 -208z" />
    <glyph glyph-name="Odieresis" unicode="&#xd6;" horiz-adv-x="788" 
d="M299 750c-41 0 -75 34 -75 75s34 75 75 75s75 -34 75 -75s-34 -75 -75 -75zM489 750c-41 0 -75 34 -75 75s34 75 75 75s75 -34 75 -75s-34 -75 -75 -75zM394 -14c-201 0 -364 158 -364 364s163 364 364 364s364 -158 364 -364s-163 -364 -364 -364zM394 142
c114 0 204 83 204 208s-90 208 -204 208s-204 -83 -204 -208s90 -208 204 -208z" />
    <glyph glyph-name="Ograve" unicode="&#xd2;" horiz-adv-x="788" 
d="M484 770l-80 140h-180l116 -140h144zM394 -14c-201 0 -364 158 -364 364s163 364 364 364s364 -158 364 -364s-163 -364 -364 -364zM394 142c114 0 204 83 204 208s-90 208 -204 208s-204 -83 -204 -208s90 -208 204 -208z" />
    <glyph glyph-name="Ohungarumlaut" unicode="&#x150;" horiz-adv-x="788" 
d="M204 760h148l86 140h-154zM387 760h148l96 140h-154zM394 -14c-201 0 -364 158 -364 364s163 364 364 364s364 -158 364 -364s-163 -364 -364 -364zM394 142c114 0 204 83 204 208s-90 208 -204 208s-204 -83 -204 -208s90 -208 204 -208z" />
    <glyph glyph-name="Omacron" unicode="&#x14c;" horiz-adv-x="788" 
d="M244 769v120h300v-120h-300zM394 -14c-201 0 -364 158 -364 364s163 364 364 364s364 -158 364 -364s-163 -364 -364 -364zM394 142c114 0 204 83 204 208s-90 208 -204 208s-204 -83 -204 -208s90 -208 204 -208z" />
    <glyph glyph-name="Oslash" unicode="&#xd8;" horiz-adv-x="793" 
d="M662 604c63 -65 101 -154 101 -254c0 -206 -163 -364 -364 -364c-72 0 -140 21 -197 56l-46 -56l-75 43l55 67c-63 65 -101 154 -101 254c0 206 163 364 364 364c72 0 140 -21 197 -56l46 56l75 -43zM195 350c0 -52 15 -96 42 -131l259 316c-29 15 -62 23 -97 23
c-114 0 -204 -83 -204 -208zM399 142c114 0 204 83 204 208c0 52 -15 96 -42 131l-259 -316c29 -15 62 -23 97 -23z" />
    <glyph glyph-name="Otilde" unicode="&#xd5;" horiz-adv-x="788" 
d="M214 763c0 171 105 189 196 133c34 -21 43 -16 43 24h120c0 -171 -105 -189 -196 -133c-34 21 -43 16 -43 -24h-120zM394 -14c-201 0 -364 158 -364 364s163 364 364 364s364 -158 364 -364s-163 -364 -364 -364zM394 142c114 0 204 83 204 208s-90 208 -204 208
s-204 -83 -204 -208s90 -208 204 -208z" />
    <glyph glyph-name="OE" unicode="&#x152;" horiz-adv-x="916" 
d="M646 154h240v-154h-400c-32 -9 -66 -14 -102 -14c-201 0 -354 158 -354 364s153 364 354 364c36 0 70 -5 102 -14h395v-154h-235v-116h210v-152h-210v-124zM486 157v386c-30 11 -65 15 -102 15c-114 0 -194 -83 -194 -208s80 -208 194 -208c37 0 72 4 102 15z" />
    <glyph glyph-name="P" unicode="P" horiz-adv-x="590" 
d="M325 700c138 0 245 -107 245 -240s-107 -240 -245 -240h-105v-220h-160v700h265zM325 370c49 0 85 39 85 90s-36 90 -85 90h-105v-180h105z" />
    <glyph glyph-name="Thorn" unicode="&#xde;" horiz-adv-x="590" 
d="M330 590c133 0 240 -107 240 -240s-107 -240 -240 -240h-110v-110h-160v700h160v-110h110zM330 260c44 0 80 39 80 90s-36 90 -80 90h-110v-180h110z" />
    <glyph glyph-name="Q" unicode="Q" horiz-adv-x="793" 
d="M758 350c0 -88 -30 -167 -80 -229l70 -74l-115 -102l-75 79c-49 -24 -105 -38 -164 -38c-201 0 -364 158 -364 364s163 364 364 364s364 -158 364 -364zM394 142c17 0 33 2 49 5l-101 107l115 102l112 -119c18 32 29 70 29 113c0 125 -90 208 -204 208
s-204 -83 -204 -208s90 -208 204 -208z" />
    <glyph glyph-name="R" unicode="R" horiz-adv-x="615" 
d="M428 0l-132 230h-76v-230h-160v700h280c133 0 240 -107 240 -240c0 -86 -52 -164 -129 -203l149 -257h-172zM220 550v-180h120c44 0 80 39 80 90s-36 90 -80 90h-120z" />
    <glyph glyph-name="Racute" unicode="&#x154;" horiz-adv-x="615" 
d="M460 900l-116 -140h-144l80 140h180zM428 0l-132 230h-76v-230h-160v700h280c133 0 240 -107 240 -240c0 -86 -52 -164 -129 -203l149 -257h-172zM220 550v-180h120c44 0 80 39 80 90s-36 90 -80 90h-120z" />
    <glyph glyph-name="Rcaron" unicode="&#x158;" horiz-adv-x="615" 
d="M211 750l-106 150h145l35 -55l35 55h145l-106 -150h-148zM428 0l-132 230h-76v-230h-160v700h280c133 0 240 -107 240 -240c0 -86 -52 -164 -129 -203l149 -257h-172zM220 550v-180h120c44 0 80 39 80 90s-36 90 -80 90h-120z" />
    <glyph glyph-name="Rcommaaccent" unicode="&#x156;" horiz-adv-x="615" 
d="M451 257l149 -257h-172l-132 230h-76v-230h-160v700h280c133 0 240 -107 240 -240c0 -86 -52 -164 -129 -203zM220 550v-180h120c44 0 80 39 80 90s-36 90 -80 90h-120zM248 -270l10 210h140l-30 -210h-120z" />
    <glyph glyph-name="S" unicode="S" horiz-adv-x="585" 
d="M305 -14c-147 0 -241 70 -280 173l138 80c25 -58 68 -97 147 -97c76 0 95 30 95 57c0 43 -40 60 -145 89c-104 29 -206 79 -206 213c0 135 114 213 235 213c115 0 205 -55 256 -158l-135 -79c-24 50 -57 81 -121 81c-50 0 -75 -25 -75 -53c0 -32 17 -54 126 -87
c106 -32 225 -69 225 -217c0 -135 -108 -215 -260 -215z" />
    <glyph glyph-name="Sacute" unicode="&#x15a;" horiz-adv-x="585" 
d="M206 770h144l116 140h-180zM305 -14c-147 0 -241 70 -280 173l138 80c25 -58 68 -97 147 -97c76 0 95 30 95 57c0 43 -40 60 -145 89c-104 29 -206 79 -206 213c0 135 114 213 235 213c115 0 205 -55 256 -158l-135 -79c-24 50 -57 81 -121 81c-50 0 -75 -25 -75 -53
c0 -32 17 -54 126 -87c106 -32 225 -69 225 -217c0 -135 -108 -215 -260 -215z" />
    <glyph glyph-name="Scaron" unicode="&#x160;" horiz-adv-x="585" 
d="M217 760l-106 150h145l35 -55l35 55h145l-106 -150h-148zM340 418c106 -32 225 -69 225 -217c0 -135 -108 -215 -260 -215c-147 0 -241 70 -280 173l138 80c25 -58 68 -97 147 -97c76 0 95 30 95 57c0 43 -40 60 -145 89c-104 29 -206 79 -206 213c0 135 114 213 235 213
c115 0 205 -55 256 -158l-135 -79c-24 50 -57 81 -121 81c-50 0 -75 -25 -75 -53c0 -32 17 -54 126 -87z" />
    <glyph glyph-name="Scedilla" unicode="&#x15e;" horiz-adv-x="585" 
d="M565 201c0 -114 -78 -189 -194 -210v-37c27 -7 63 -29 63 -77c0 -63 -57 -103 -225 -93v104c65 -5 95 1 95 14c0 12 -21 17 -53 20v67c-116 16 -192 80 -226 170l138 80c25 -58 68 -97 147 -97c76 0 95 30 95 57c0 43 -40 60 -145 89c-104 29 -206 79 -206 213
c0 135 114 213 235 213c115 0 205 -55 256 -158l-135 -79c-24 50 -57 81 -121 81c-50 0 -75 -25 -75 -53c0 -32 17 -54 126 -87c106 -32 225 -69 225 -217z" />
    <glyph glyph-name="Scommaaccent" unicode="&#x218;" horiz-adv-x="585" 
d="M305 -14c-147 0 -241 70 -280 173l138 80c25 -58 68 -97 147 -97c76 0 95 30 95 57c0 43 -40 60 -145 89c-104 29 -206 79 -206 213c0 135 114 213 235 213c115 0 205 -55 256 -158l-135 -79c-24 50 -57 81 -121 81c-50 0 -75 -25 -75 -53c0 -32 17 -54 126 -87
c106 -32 225 -69 225 -217c0 -135 -108 -215 -260 -215zM352 -270l30 210h-140l-10 -210h120z" />
    <glyph glyph-name="T" unicode="T" horiz-adv-x="540" 
d="M530 700v-154h-180v-546h-160v546h-180v154h520z" />
    <glyph glyph-name="Tbar" unicode="&#x166;" horiz-adv-x="540" 
d="M530 546h-180v-134h110v-144h-110v-268h-160v268h-110v144h110v134h-180v154h520v-154z" />
    <glyph glyph-name="Tcaron" unicode="&#x164;" horiz-adv-x="540" 
d="M191 750l-106 150h145l35 -55l35 55h145l-106 -150h-148zM530 700v-154h-180v-546h-160v546h-180v154h520z" />
    <glyph glyph-name="uni0162" unicode="&#x162;" horiz-adv-x="540" 
d="M530 700v-154h-180v-546h-160v546h-180v154h520zM198 -270l10 210h140l-30 -210h-120z" />
    <glyph glyph-name="uni021A" unicode="&#x21a;" horiz-adv-x="540" 
d="M530 700v-154h-180v-546h-160v546h-180v154h520zM198 -270l10 210h140l-30 -210h-120z" />
    <glyph glyph-name="U" unicode="U" horiz-adv-x="650" 
d="M325 -14c-154 0 -270 90 -270 240v474h160v-460c0 -53 25 -98 110 -98s110 45 110 98v460h160v-474c0 -150 -116 -240 -270 -240z" />
    <glyph glyph-name="Uacute" unicode="&#xda;" horiz-adv-x="650" 
d="M235 760h144l116 140h-180zM325 -14c-154 0 -270 90 -270 240v474h160v-460c0 -53 25 -98 110 -98s110 45 110 98v460h160v-474c0 -150 -116 -240 -270 -240z" />
    <glyph glyph-name="Ucircumflex" unicode="&#xdb;" horiz-adv-x="650" 
d="M320 805l-35 -55h-145l106 150h148l106 -150h-145zM435 700h160v-474c0 -150 -116 -240 -270 -240s-270 90 -270 240v474h160v-460c0 -53 25 -98 110 -98s110 45 110 98v460z" />
    <glyph glyph-name="Udieresis" unicode="&#xdc;" horiz-adv-x="650" 
d="M230 740c-41 0 -75 34 -75 75s34 75 75 75s75 -34 75 -75s-34 -75 -75 -75zM420 740c-41 0 -75 34 -75 75s34 75 75 75s75 -34 75 -75s-34 -75 -75 -75zM325 -14c-154 0 -270 90 -270 240v474h160v-460c0 -53 25 -98 110 -98s110 45 110 98v460h160v-474
c0 -150 -116 -240 -270 -240z" />
    <glyph glyph-name="Ugrave" unicode="&#xd9;" horiz-adv-x="650" 
d="M415 760l-80 140h-180l116 -140h144zM325 -14c-154 0 -270 90 -270 240v474h160v-460c0 -53 25 -98 110 -98s110 45 110 98v460h160v-474c0 -150 -116 -240 -270 -240z" />
    <glyph glyph-name="Uhungarumlaut" unicode="&#x170;" horiz-adv-x="650" 
d="M135 750h148l86 140h-154zM318 750h148l96 140h-154zM325 -14c-154 0 -270 90 -270 240v474h160v-460c0 -53 25 -98 110 -98s110 45 110 98v460h160v-474c0 -150 -116 -240 -270 -240z" />
    <glyph glyph-name="Umacron" unicode="&#x16a;" horiz-adv-x="650" 
d="M175 759v120h300v-120h-300zM325 -14c-154 0 -270 90 -270 240v474h160v-460c0 -53 25 -98 110 -98s110 45 110 98v460h160v-474c0 -150 -116 -240 -270 -240z" />
    <glyph glyph-name="Uogonek" unicode="&#x172;" horiz-adv-x="650" 
d="M435 700h160v-474c0 -79 -33 -142 -86 -183c-65 -60 -85 -91 -87 -128c-1 -16 7 -24 22 -26c6 -1 14 1 23 4v-90c-27 -11 -52 -17 -88 -17c-55 0 -100 28 -100 91c0 34 20 73 51 109h-5c-154 0 -270 90 -270 240v474h160v-460c0 -53 25 -98 110 -98s110 45 110 98v460z
" />
    <glyph glyph-name="Uring" unicode="&#x16e;" horiz-adv-x="650" 
d="M325 705c-78 0 -133 54 -133 125s55 125 133 125c80 0 133 -54 133 -125s-53 -125 -133 -125zM325 796c24 0 36 15 36 34s-12 34 -36 34c-23 0 -35 -15 -35 -34s12 -34 35 -34zM325 -14c-154 0 -270 90 -270 240v474h160v-460c0 -53 25 -98 110 -98s110 45 110 98v460
h160v-474c0 -150 -116 -240 -270 -240z" />
    <glyph glyph-name="V" unicode="V" horiz-adv-x="660" 
d="M228 0l-228 700h175l155 -515l155 515h175l-228 -700h-204z" />
    <glyph glyph-name="W" unicode="W" horiz-adv-x="998" 
d="M203 0l-193 700h168l121 -490l135 490h130l135 -490l121 490h168l-193 -700h-182l-114 413l-114 -413h-182z" />
    <glyph glyph-name="Wacute" unicode="&#x1e82;" horiz-adv-x="998" 
d="M448 760h144l116 140h-180zM203 0l-193 700h168l121 -490l135 490h130l135 -490l121 490h168l-193 -700h-182l-114 413l-114 -413h-182z" />
    <glyph glyph-name="Wcircumflex" unicode="&#x174;" horiz-adv-x="998" 
d="M533 805l-35 -55h-145l106 150h148l106 -150h-145zM820 700h168l-193 -700h-182l-114 413l-114 -413h-182l-193 700h168l121 -490l135 490h130l135 -490z" />
    <glyph glyph-name="Wdieresis" unicode="&#x1e84;" horiz-adv-x="998" 
d="M443 740c-41 0 -75 34 -75 75s34 75 75 75s75 -34 75 -75s-34 -75 -75 -75zM633 740c-41 0 -75 34 -75 75s34 75 75 75s75 -34 75 -75s-34 -75 -75 -75zM203 0l-193 700h168l121 -490l135 490h130l135 -490l121 490h168l-193 -700h-182l-114 413l-114 -413h-182z" />
    <glyph glyph-name="Wgrave" unicode="&#x1e80;" horiz-adv-x="998" 
d="M628 760l-80 140h-180l116 -140h144zM203 0l-193 700h168l121 -490l135 490h130l135 -490l121 490h168l-193 -700h-182l-114 413l-114 -413h-182z" />
    <glyph glyph-name="X" unicode="X" horiz-adv-x="620" 
d="M610 0h-182l-118 202l-118 -202h-182l209 359l-199 341h182l108 -185l108 185h182l-199 -341z" />
    <glyph glyph-name="Y" unicode="Y" horiz-adv-x="630" 
d="M630 700l-235 -431v-269h-160v269l-235 431h182l133 -270l133 270h182z" />
    <glyph glyph-name="Yacute" unicode="&#xdd;" horiz-adv-x="630" 
d="M485 900l-116 -140h-144l80 140h180zM630 700l-235 -431v-269h-160v269l-235 431h182l133 -270l133 270h182z" />
    <glyph glyph-name="Ycircumflex" unicode="&#x176;" horiz-adv-x="630" 
d="M310 805l-35 -55h-145l106 150h148l106 -150h-145zM630 700l-235 -431v-269h-160v269l-235 431h182l133 -270l133 270h182z" />
    <glyph glyph-name="Ydieresis" unicode="&#x178;" horiz-adv-x="630" 
d="M220 740c-41 0 -75 34 -75 75s34 75 75 75s75 -34 75 -75s-34 -75 -75 -75zM410 740c-41 0 -75 34 -75 75s34 75 75 75s75 -34 75 -75s-34 -75 -75 -75zM630 700l-235 -431v-269h-160v269l-235 431h182l133 -270l133 270h182z" />
    <glyph glyph-name="Ygrave" unicode="&#x1ef2;" horiz-adv-x="630" 
d="M405 760h-144l-116 140h180zM630 700l-235 -431v-269h-160v269l-235 431h182l133 -270l133 270h182z" />
    <glyph glyph-name="Z" unicode="Z" horiz-adv-x="540" 
d="M242 154h273v-154h-480v124l268 422h-263v154h470v-124z" />
    <glyph glyph-name="Zacute" unicode="&#x179;" horiz-adv-x="540" 
d="M445 900l-116 -140h-144l80 140h180zM242 154h273v-154h-480v124l268 422h-263v154h470v-124z" />
    <glyph glyph-name="Zcaron" unicode="&#x17d;" horiz-adv-x="540" 
d="M196 750l-106 150h145l35 -55l35 55h145l-106 -150h-148zM242 154h273v-154h-480v124l268 422h-263v154h470v-124z" />
    <glyph glyph-name="Zdotaccent" unicode="&#x17b;" horiz-adv-x="540" 
d="M275 745c-46 0 -85 39 -85 85s39 85 85 85s85 -39 85 -85s-39 -85 -85 -85zM242 154h273v-154h-480v124l268 422h-263v154h470v-124z" />
    <glyph glyph-name="a" unicode="a" horiz-adv-x="623" 
d="M418 500h150v-500h-150v47c-33 -38 -82 -61 -149 -61c-131 0 -239 115 -239 264s108 264 239 264c67 0 116 -23 149 -61v47zM299 128c69 0 119 47 119 122s-50 122 -119 122s-119 -47 -119 -122s50 -122 119 -122z" />
    <glyph glyph-name="aacute" unicode="&#xe1;" horiz-adv-x="623" 
d="M480 700l-116 -140h-144l80 140h180zM418 500h150v-500h-150v47c-33 -38 -82 -61 -149 -61c-131 0 -239 115 -239 264s108 264 239 264c67 0 116 -23 149 -61v47zM299 128c69 0 119 47 119 122s-50 122 -119 122s-119 -47 -119 -122s50 -122 119 -122z" />
    <glyph glyph-name="abreve" unicode="&#x103;" horiz-adv-x="623" 
d="M310 542c-113 0 -175 55 -175 150h132c0 -29 15 -46 43 -46s43 17 43 46h132c0 -95 -62 -150 -175 -150zM418 500h150v-500h-150v47c-33 -38 -82 -61 -149 -61c-131 0 -239 115 -239 264s108 264 239 264c67 0 116 -23 149 -61v47zM299 128c69 0 119 47 119 122
s-50 122 -119 122s-119 -47 -119 -122s50 -122 119 -122z" />
    <glyph glyph-name="acircumflex" unicode="&#xe2;" horiz-adv-x="623" 
d="M305 605l-35 -55h-145l106 150h148l106 -150h-145zM418 500h150v-500h-150v47c-33 -38 -82 -61 -149 -61c-131 0 -239 115 -239 264s108 264 239 264c67 0 116 -23 149 -61v47zM299 128c69 0 119 47 119 122s-50 122 -119 122s-119 -47 -119 -122s50 -122 119 -122z" />
    <glyph glyph-name="adieresis" unicode="&#xe4;" horiz-adv-x="623" 
d="M215 540c-41 0 -75 34 -75 75s34 75 75 75s75 -34 75 -75s-34 -75 -75 -75zM405 540c-41 0 -75 34 -75 75s34 75 75 75s75 -34 75 -75s-34 -75 -75 -75zM418 500h150v-500h-150v47c-33 -38 -82 -61 -149 -61c-131 0 -239 115 -239 264s108 264 239 264
c67 0 116 -23 149 -61v47zM299 128c69 0 119 47 119 122s-50 122 -119 122s-119 -47 -119 -122s50 -122 119 -122z" />
    <glyph glyph-name="agrave" unicode="&#xe0;" horiz-adv-x="623" 
d="M400 560h-144l-116 140h180zM418 500h150v-500h-150v47c-33 -38 -82 -61 -149 -61c-131 0 -239 115 -239 264s108 264 239 264c67 0 116 -23 149 -61v47zM299 128c69 0 119 47 119 122s-50 122 -119 122s-119 -47 -119 -122s50 -122 119 -122z" />
    <glyph glyph-name="amacron" unicode="&#x101;" horiz-adv-x="623" 
d="M460 679v-120h-300v120h300zM418 500h150v-500h-150v47c-33 -38 -82 -61 -149 -61c-131 0 -239 115 -239 264s108 264 239 264c67 0 116 -23 149 -61v47zM299 128c69 0 119 47 119 122s-50 122 -119 122s-119 -47 -119 -122s50 -122 119 -122z" />
    <glyph glyph-name="aogonek" unicode="&#x105;" horiz-adv-x="623" 
d="M568 0c-29 -32 -45 -64 -45 -85c-1 -16 7 -26 22 -26c6 -1 14 1 23 4v-90c-27 -11 -52 -17 -88 -17c-55 0 -100 28 -100 91c0 38 26 83 64 123h-26v47c-33 -38 -82 -61 -149 -61c-131 0 -239 115 -239 264s108 264 239 264c67 0 116 -23 149 -61v47h150v-500zM299 128
c69 0 119 47 119 122s-50 122 -119 122s-119 -47 -119 -122s50 -122 119 -122z" />
    <glyph glyph-name="aring" unicode="&#xe5;" horiz-adv-x="623" 
d="M310 535c-78 0 -133 54 -133 125s55 125 133 125c80 0 133 -54 133 -125s-53 -125 -133 -125zM310 694c-23 0 -35 -15 -35 -34s12 -34 35 -34c24 0 36 15 36 34s-12 34 -36 34zM418 500h150v-500h-150v47c-33 -38 -82 -61 -149 -61c-131 0 -239 115 -239 264
s108 264 239 264c67 0 116 -23 149 -61v47zM299 128c69 0 119 47 119 122s-50 122 -119 122s-119 -47 -119 -122s50 -122 119 -122z" />
    <glyph glyph-name="atilde" unicode="&#xe3;" horiz-adv-x="623" 
d="M293 577c-34 21 -43 16 -43 -24h-120c0 171 105 189 196 133c34 -21 43 -16 43 24h120c0 -171 -105 -189 -196 -133zM418 500h150v-500h-150v47c-33 -38 -82 -61 -149 -61c-131 0 -239 115 -239 264s108 264 239 264c67 0 116 -23 149 -61v47zM299 128
c69 0 119 47 119 122s-50 122 -119 122s-119 -47 -119 -122s50 -122 119 -122z" />
    <glyph glyph-name="ae" unicode="&#xe6;" horiz-adv-x="970" 
d="M579 190c20 -52 69 -70 120 -70c41 0 76 16 96 38l120 -69c-49 -68 -103 -103 -198 -103c-66 0 -120 25 -159 68v-54h-140v47c-33 -38 -82 -61 -149 -61c-131 0 -239 115 -239 264s108 264 239 264c67 0 116 -23 149 -61v47h140v-53c38 42 91 67 155 67
c146 0 227 -113 227 -264c0 -21 -2 -41 -6 -60h-355zM576 304h215c-16 57 -60 77 -104 77c-56 0 -95 -27 -111 -77zM299 128c69 0 119 47 119 122s-50 122 -119 122s-119 -47 -119 -122s50 -122 119 -122z" />
    <glyph glyph-name="b" unicode="b" horiz-adv-x="623" 
d="M354 514c131 0 239 -115 239 -264s-108 -264 -239 -264c-67 0 -116 23 -149 61v-47h-150v700h150v-247c33 38 82 61 149 61zM324 128c69 0 119 47 119 122s-50 122 -119 122s-119 -47 -119 -122s50 -122 119 -122z" />
    <glyph glyph-name="c" unicode="c" horiz-adv-x="531" 
d="M295 -14c-152 0 -265 115 -265 264s113 264 265 264c97 0 183 -51 226 -128l-131 -76c-17 35 -53 56 -97 56c-65 0 -113 -47 -113 -116s48 -116 113 -116c44 0 81 21 97 56l131 -75c-43 -78 -128 -129 -226 -129z" />
    <glyph glyph-name="cacute" unicode="&#x107;" horiz-adv-x="531" 
d="M207 560h144l116 140h-180zM295 -14c-152 0 -265 115 -265 264s113 264 265 264c97 0 183 -51 226 -128l-131 -76c-17 35 -53 56 -97 56c-65 0 -113 -47 -113 -116s48 -116 113 -116c44 0 81 21 97 56l131 -75c-43 -78 -128 -129 -226 -129z" />
    <glyph glyph-name="ccaron" unicode="&#x10d;" horiz-adv-x="531" 
d="M218 550l-106 150h145l35 -55l35 55h145l-106 -150h-148zM293 134c44 0 81 21 97 56l131 -75c-43 -78 -128 -129 -226 -129c-152 0 -265 115 -265 264s113 264 265 264c97 0 183 -51 226 -128l-131 -76c-17 35 -53 56 -97 56c-65 0 -113 -47 -113 -116s48 -116 113 -116z
" />
    <glyph glyph-name="ccedilla" unicode="&#xe7;" horiz-adv-x="531" 
d="M293 134c44 0 81 21 97 56l131 -75c-33 -60 -90 -103 -159 -121v-40c27 -7 63 -29 63 -77c0 -63 -57 -103 -225 -93v104c65 -5 95 1 95 14c0 12 -21 17 -53 20v69c-125 23 -212 128 -212 259c0 149 113 264 265 264c97 0 183 -51 226 -128l-131 -76c-17 35 -53 56 -97 56
c-65 0 -113 -47 -113 -116s48 -116 113 -116z" />
    <glyph glyph-name="cdotaccent" unicode="&#x10b;" horiz-adv-x="531" 
d="M297 545c-46 0 -85 39 -85 85s39 85 85 85s85 -39 85 -85s-39 -85 -85 -85zM295 -14c-152 0 -265 115 -265 264s113 264 265 264c97 0 183 -51 226 -128l-131 -76c-17 35 -53 56 -97 56c-65 0 -113 -47 -113 -116s48 -116 113 -116c44 0 81 21 97 56l131 -75
c-43 -78 -128 -129 -226 -129z" />
    <glyph glyph-name="d" unicode="d" horiz-adv-x="623" 
d="M418 700h150v-700h-150v47c-33 -38 -82 -61 -149 -61c-131 0 -239 115 -239 264s108 264 239 264c67 0 116 -23 149 -61v247zM299 128c69 0 119 47 119 122s-50 122 -119 122s-119 -47 -119 -122s50 -122 119 -122z" />
    <glyph glyph-name="eth" unicode="&#xf0;" horiz-adv-x="566" 
d="M490 370c27 -37 46 -85 46 -140c0 -153 -119 -242 -253 -242s-253 89 -253 242c0 121 95 221 220 224l-51 69l-132 -61v100l78 36l-73 102h172l31 -41l119 55v-100l-64 -30zM283 128c61 0 103 37 103 102c0 24 -9 46 -18 59c-19 25 -46 39 -85 39
c-61 0 -103 -37 -103 -98c0 -65 42 -102 103 -102z" />
    <glyph glyph-name="dcaron" unicode="&#x10f;" horiz-adv-x="746" 
d="M418 453v247h150v-700h-150v47c-33 -38 -82 -61 -149 -61c-131 0 -239 115 -239 264s108 264 239 264c67 0 116 -23 149 -61zM616 700h140l-30 -210h-120zM299 128c69 0 119 47 119 122s-50 122 -119 122s-119 -47 -119 -122s50 -122 119 -122z" />
    <glyph glyph-name="dcroat" unicode="&#x111;" horiz-adv-x="628" 
d="M628 640v-94h-60v-546h-150v47c-33 -38 -82 -61 -149 -61c-131 0 -239 115 -239 264s108 264 239 264c67 0 116 -23 149 -61v93h-140v94h140v60h150v-60h60zM299 128c69 0 119 47 119 122s-50 122 -119 122s-119 -47 -119 -122s50 -122 119 -122z" />
    <glyph glyph-name="e" unicode="e" 
d="M189 190c19 -52 65 -70 120 -70c41 0 76 16 96 38l120 -69c-49 -68 -123 -103 -218 -103c-171 0 -277 115 -277 264s108 264 266 264c146 0 254 -113 254 -264c0 -21 -2 -41 -6 -60h-355zM186 302h215c-16 58 -61 79 -106 79c-57 0 -95 -28 -109 -79z" />
    <glyph glyph-name="eacute" unicode="&#xe9;" 
d="M460 705l-116 -140h-144l80 140h180zM189 190c19 -52 65 -70 120 -70c41 0 76 16 96 38l120 -69c-49 -68 -123 -103 -218 -103c-171 0 -277 115 -277 264s108 264 266 264c146 0 254 -113 254 -264c0 -21 -2 -41 -6 -60h-355zM186 302h215c-16 58 -61 79 -106 79
c-57 0 -95 -28 -109 -79z" />
    <glyph glyph-name="ecaron" unicode="&#x11b;" 
d="M211 555l-106 150h145l35 -55l35 55h145l-106 -150h-148zM189 190c19 -52 65 -70 120 -70c41 0 76 16 96 38l120 -69c-49 -68 -123 -103 -218 -103c-171 0 -277 115 -277 264s108 264 266 264c146 0 254 -113 254 -264c0 -21 -2 -41 -6 -60h-355zM186 302h215
c-16 58 -61 79 -106 79c-57 0 -95 -28 -109 -79z" />
    <glyph glyph-name="ecircumflex" unicode="&#xea;" 
d="M285 610l-35 -55h-145l106 150h148l106 -150h-145zM189 190c19 -52 65 -70 120 -70c41 0 76 16 96 38l120 -69c-49 -68 -123 -103 -218 -103c-171 0 -277 115 -277 264s108 264 266 264c146 0 254 -113 254 -264c0 -21 -2 -41 -6 -60h-355zM186 302h215
c-16 58 -61 79 -106 79c-57 0 -95 -28 -109 -79z" />
    <glyph glyph-name="edieresis" unicode="&#xeb;" 
d="M195 545c-41 0 -75 34 -75 75s34 75 75 75s75 -34 75 -75s-34 -75 -75 -75zM385 545c-41 0 -75 34 -75 75s34 75 75 75s75 -34 75 -75s-34 -75 -75 -75zM189 190c19 -52 65 -70 120 -70c41 0 76 16 96 38l120 -69c-49 -68 -123 -103 -218 -103c-171 0 -277 115 -277 264
s108 264 266 264c146 0 254 -113 254 -264c0 -21 -2 -41 -6 -60h-355zM186 302h215c-16 58 -61 79 -106 79c-57 0 -95 -28 -109 -79z" />
    <glyph glyph-name="edotaccent" unicode="&#x117;" 
d="M290 550c-46 0 -85 39 -85 85s39 85 85 85s85 -39 85 -85s-39 -85 -85 -85zM189 190c19 -52 65 -70 120 -70c41 0 76 16 96 38l120 -69c-49 -68 -123 -103 -218 -103c-171 0 -277 115 -277 264s108 264 266 264c146 0 254 -113 254 -264c0 -21 -2 -41 -6 -60h-355z
M186 302h215c-16 58 -61 79 -106 79c-57 0 -95 -28 -109 -79z" />
    <glyph glyph-name="egrave" unicode="&#xe8;" 
d="M380 565h-144l-116 140h180zM189 190c19 -52 65 -70 120 -70c41 0 76 16 96 38l120 -69c-49 -68 -123 -103 -218 -103c-171 0 -277 115 -277 264s108 264 266 264c146 0 254 -113 254 -264c0 -21 -2 -41 -6 -60h-355zM186 302h215c-16 58 -61 79 -106 79
c-57 0 -95 -28 -109 -79z" />
    <glyph glyph-name="emacron" unicode="&#x113;" 
d="M440 684v-120h-300v120h300zM189 190c19 -52 65 -70 120 -70c41 0 76 16 96 38l120 -69c-49 -68 -123 -103 -218 -103c-171 0 -277 115 -277 264s108 264 266 264c146 0 254 -113 254 -264c0 -21 -2 -41 -6 -60h-355zM186 302h215c-16 58 -61 79 -106 79
c-57 0 -95 -28 -109 -79z" />
    <glyph glyph-name="eogonek" unicode="&#x119;" 
d="M189 190c19 -52 65 -70 120 -70c41 0 76 16 96 38l120 -69c-11 -15 -23 -28 -36 -40c-65 -70 -74 -117 -74 -134c0 -16 7 -26 22 -26c6 -1 14 1 23 4v-90c-27 -11 -52 -17 -88 -17c-55 0 -100 28 -100 91c0 34 21 74 67 110c-10 -1 -21 -1 -32 -1
c-171 0 -277 115 -277 264s108 264 266 264c146 0 254 -113 254 -264c0 -21 -2 -41 -6 -60h-355zM186 302h215c-16 58 -61 79 -106 79c-57 0 -95 -28 -109 -79z" />
    <glyph glyph-name="f" unicode="f" horiz-adv-x="330" 
d="M330 570c-56 5 -93 -12 -93 -70h93v-144h-93v-356h-150v356h-67v144h67c0 140 77 224 243 214v-144z" />
    <glyph glyph-name="g" unicode="g" horiz-adv-x="623" 
d="M422 500h146v-475c0 -168 -131 -239 -264 -239c-104 0 -191 39 -237 121l128 74c19 -35 48 -63 114 -63c70 0 113 36 113 107v46c-33 -41 -81 -65 -146 -65c-142 0 -246 116 -246 254s104 254 246 254c65 0 113 -24 146 -65v51zM301 144c71 0 121 47 121 116
s-50 116 -121 116s-121 -47 -121 -116s50 -116 121 -116z" />
    <glyph glyph-name="gbreve" unicode="&#x11f;" horiz-adv-x="623" 
d="M293 552c-113 0 -175 55 -175 150h132c0 -29 15 -46 43 -46s43 17 43 46h132c0 -95 -62 -150 -175 -150zM422 500h146v-475c0 -168 -131 -239 -264 -239c-104 0 -191 39 -237 121l128 74c19 -35 48 -63 114 -63c70 0 113 36 113 107v46c-33 -41 -81 -65 -146 -65
c-142 0 -246 116 -246 254s104 254 246 254c65 0 113 -24 146 -65v51zM301 144c71 0 121 47 121 116s-50 116 -121 116s-121 -47 -121 -116s50 -116 121 -116z" />
    <glyph glyph-name="gcommaaccent" unicode="&#x123;" horiz-adv-x="623" 
d="M366 790l-10 -210h-140l30 210h120zM422 500h146v-475c0 -168 -131 -239 -264 -239c-104 0 -191 39 -237 121l128 74c19 -35 48 -63 114 -63c70 0 113 36 113 107v46c-33 -41 -81 -65 -146 -65c-142 0 -246 116 -246 254s104 254 246 254c65 0 113 -24 146 -65v51z
M301 144c71 0 121 47 121 116s-50 116 -121 116s-121 -47 -121 -116s50 -116 121 -116z" />
    <glyph glyph-name="gdotaccent" unicode="&#x121;" horiz-adv-x="623" 
d="M293 555c-46 0 -85 39 -85 85s39 85 85 85s85 -39 85 -85s-39 -85 -85 -85zM422 500h146v-475c0 -168 -131 -239 -264 -239c-104 0 -191 39 -237 121l128 74c19 -35 48 -63 114 -63c70 0 113 36 113 107v46c-33 -41 -81 -65 -146 -65c-142 0 -246 116 -246 254
s104 254 246 254c65 0 113 -24 146 -65v51zM301 144c71 0 121 47 121 116s-50 116 -121 116s-121 -47 -121 -116s50 -116 121 -116z" />
    <glyph glyph-name="h" unicode="h" horiz-adv-x="583" 
d="M348 514c101 0 187 -72 187 -207v-307h-150v285c0 62 -39 91 -87 91c-55 0 -93 -32 -93 -103v-273h-150v700h150v-247c27 37 77 61 143 61z" />
    <glyph glyph-name="hbar" unicode="&#x127;" horiz-adv-x="588" 
d="M353 514c101 0 187 -72 187 -207v-307h-150v285c0 62 -39 91 -87 91c-55 0 -93 -32 -93 -103v-273h-150v546h-60v94h60v60h150v-60h140v-94h-140v-93c27 37 77 61 143 61z" />
    <glyph glyph-name="i" unicode="i" horiz-adv-x="260" 
d="M130 544c-49 0 -90 41 -90 90s41 90 90 90s90 -41 90 -90s-41 -90 -90 -90zM55 0v500h150v-500h-150z" />
    <glyph glyph-name="dotlessi" unicode="&#x131;" horiz-adv-x="260" 
d="M55 0v500h150v-500h-150z" />
    <glyph glyph-name="iacute" unicode="&#xed;" horiz-adv-x="260" 
d="M55 550h144l66 150h-170zM55 0v500h150v-500h-150z" />
    <glyph glyph-name="icircumflex" unicode="&#xee;" horiz-adv-x="260" 
d="M130 594l-25 -44h-145l96 150h148l96 -150h-145zM55 0v500h150v-500h-150z" />
    <glyph glyph-name="idieresis" unicode="&#xef;" horiz-adv-x="260" 
d="M40 545c-41 0 -75 34 -75 75s34 75 75 75s75 -34 75 -75s-34 -75 -75 -75zM220 545c-41 0 -75 34 -75 75s34 75 75 75s75 -34 75 -75s-34 -75 -75 -75zM55 0v500h150v-500h-150z" />
    <glyph glyph-name="i.loclTRK" horiz-adv-x="260" 
d="M130 545c-46 0 -85 39 -85 85s39 85 85 85s85 -39 85 -85s-39 -85 -85 -85zM55 0v500h150v-500h-150z" />
    <glyph glyph-name="igrave" unicode="&#xec;" horiz-adv-x="260" 
d="M200 550l-40 150h-170l66 -150h144zM205 0h-150v500h150v-500z" />
    <glyph glyph-name="imacron" unicode="&#x12b;" horiz-adv-x="260" 
d="M10 559v130h240v-130h-240zM55 0v500h150v-500h-150z" />
    <glyph glyph-name="iogonek" unicode="&#x12f;" horiz-adv-x="260" 
d="M130 544c-49 0 -90 41 -90 90s41 90 90 90s90 -41 90 -90s-41 -90 -90 -90zM195 -111c6 -1 14 1 23 4v-90c-27 -11 -52 -17 -88 -17c-55 0 -100 28 -100 91c0 38 18 83 46 123h-21v500h150v-500c-19 -31 -32 -64 -32 -85c-1 -16 7 -26 22 -26z" />
    <glyph glyph-name="j" unicode="j" horiz-adv-x="275" 
d="M145 544c-49 0 -90 41 -90 90s41 90 90 90s90 -41 90 -90s-41 -90 -90 -90zM70 0v500h150v-500c0 -156 -72 -223 -230 -214v144c55 -3 80 17 80 70z" />
    <glyph glyph-name="k" unicode="k" horiz-adv-x="535" 
d="M535 0h-170l-160 221v-221h-150v700h150v-419l150 219h175l-182 -250z" />
    <glyph glyph-name="kcommaaccent" unicode="&#x137;" horiz-adv-x="535" 
d="M348 250l187 -250h-170l-160 221v-221h-150v700h150v-419l150 219h175zM213 -270l10 210h140l-30 -210h-120z" />
    <glyph glyph-name="l" unicode="l" horiz-adv-x="260" 
d="M55 0v730h150v-730h-150z" />
    <glyph glyph-name="lacute" unicode="&#x13a;" horiz-adv-x="260" 
d="M52 760h144l116 140h-180zM55 0v730h150v-730h-150z" />
    <glyph glyph-name="lcaron" unicode="&#x13e;" horiz-adv-x="381" 
d="M55 0v730h150v-730h-150zM361 520l30 210h-140l-10 -210h120z" />
    <glyph glyph-name="lcommaaccent" unicode="&#x13c;" horiz-adv-x="260" 
d="M55 0v730h150v-730h-150zM173 -270l30 210h-140l-10 -210h120z" />
    <glyph glyph-name="lslash" unicode="&#x142;" horiz-adv-x="270" 
d="M260 500v-143l-50 -34v-323h-150v220l-50 -34v143l50 34v367h150v-264z" />
    <glyph glyph-name="m" unicode="m" horiz-adv-x="853" 
d="M615 514c115 0 190 -82 190 -207v-307h-150v294c0 50 -24 82 -72 82c-50 0 -78 -35 -78 -94v-282h-150v294c0 50 -24 82 -72 82c-50 0 -78 -35 -78 -94v-282h-150v500h150v-46c23 34 67 60 134 60c59 0 103 -24 131 -66c28 40 74 66 145 66z" />
    <glyph glyph-name="n" unicode="n" horiz-adv-x="583" 
d="M348 514c101 0 187 -72 187 -207v-307h-150v285c0 62 -39 91 -87 91c-55 0 -93 -32 -93 -103v-273h-150v500h150v-47c27 37 77 61 143 61z" />
    <glyph glyph-name="nacute" unicode="&#x144;" horiz-adv-x="583" 
d="M471 710l-116 -140h-144l80 140h180zM348 514c101 0 187 -72 187 -207v-307h-150v285c0 62 -39 91 -87 91c-55 0 -93 -32 -93 -103v-273h-150v500h150v-47c27 37 77 61 143 61z" />
    <glyph glyph-name="ncaron" unicode="&#x148;" horiz-adv-x="583" 
d="M222 560l-106 150h145l35 -55l35 55h145l-106 -150h-148zM348 514c101 0 187 -72 187 -207v-307h-150v285c0 62 -39 91 -87 91c-55 0 -93 -32 -93 -103v-273h-150v500h150v-47c27 37 77 61 143 61z" />
    <glyph glyph-name="ncommaaccent" unicode="&#x146;" horiz-adv-x="583" 
d="M348 514c101 0 187 -72 187 -207v-307h-150v285c0 62 -39 91 -87 91c-55 0 -93 -32 -93 -103v-273h-150v500h150v-47c27 37 77 61 143 61zM221 -270l10 210h140l-30 -210h-120z" />
    <glyph glyph-name="eng" unicode="&#x14b;" horiz-adv-x="583" 
d="M348 514c101 0 187 -72 187 -207v-307c0 -140 -67 -224 -220 -214v144c43 -5 70 12 70 70v285c0 62 -39 91 -87 91c-55 0 -93 -32 -93 -103v-273h-150v500h150v-47c27 37 77 61 143 61z" />
    <glyph glyph-name="ntilde" unicode="&#xf1;" horiz-adv-x="583" 
d="M284 587c-34 21 -43 16 -43 -24h-120c0 171 105 189 196 133c34 -21 43 -16 43 24h120c0 -171 -105 -189 -196 -133zM348 514c101 0 187 -72 187 -207v-307h-150v285c0 62 -39 91 -87 91c-55 0 -93 -32 -93 -103v-273h-150v500h150v-47c27 37 77 61 143 61z" />
    <glyph glyph-name="o" unicode="o" horiz-adv-x="590" 
d="M295 -14c-147 0 -265 115 -265 264s118 264 265 264s265 -115 265 -264s-118 -264 -265 -264zM295 132c65 0 115 47 115 118s-50 118 -115 118s-115 -47 -115 -118s50 -118 115 -118z" />
    <glyph glyph-name="oacute" unicode="&#xf3;" horiz-adv-x="590" 
d="M205 570h144l116 140h-180zM295 -14c-147 0 -265 115 -265 264s118 264 265 264s265 -115 265 -264s-118 -264 -265 -264zM295 132c65 0 115 47 115 118s-50 118 -115 118s-115 -47 -115 -118s50 -118 115 -118z" />
    <glyph glyph-name="ocircumflex" unicode="&#xf4;" horiz-adv-x="590" 
d="M290 615l-35 -55h-145l106 150h148l106 -150h-145zM295 514c147 0 265 -115 265 -264s-118 -264 -265 -264s-265 115 -265 264s118 264 265 264zM295 132c65 0 115 47 115 118s-50 118 -115 118s-115 -47 -115 -118s50 -118 115 -118z" />
    <glyph glyph-name="odieresis" unicode="&#xf6;" horiz-adv-x="590" 
d="M200 550c-41 0 -75 34 -75 75s34 75 75 75s75 -34 75 -75s-34 -75 -75 -75zM390 550c-41 0 -75 34 -75 75s34 75 75 75s75 -34 75 -75s-34 -75 -75 -75zM295 -14c-147 0 -265 115 -265 264s118 264 265 264s265 -115 265 -264s-118 -264 -265 -264zM295 132
c65 0 115 47 115 118s-50 118 -115 118s-115 -47 -115 -118s50 -118 115 -118z" />
    <glyph glyph-name="ograve" unicode="&#xf2;" horiz-adv-x="590" 
d="M385 570l-80 140h-180l116 -140h144zM295 -14c-147 0 -265 115 -265 264s118 264 265 264s265 -115 265 -264s-118 -264 -265 -264zM295 132c65 0 115 47 115 118s-50 118 -115 118s-115 -47 -115 -118s50 -118 115 -118z" />
    <glyph glyph-name="ohungarumlaut" unicode="&#x151;" horiz-adv-x="590" 
d="M105 560h148l86 140h-154zM288 560h148l96 140h-154zM295 -14c-147 0 -265 115 -265 264s118 264 265 264s265 -115 265 -264s-118 -264 -265 -264zM295 132c65 0 115 47 115 118s-50 118 -115 118s-115 -47 -115 -118s50 -118 115 -118z" />
    <glyph glyph-name="omacron" unicode="&#x14d;" horiz-adv-x="590" 
d="M145 569v120h300v-120h-300zM295 -14c-147 0 -265 115 -265 264s118 264 265 264s265 -115 265 -264s-118 -264 -265 -264zM295 132c65 0 115 47 115 118s-50 118 -115 118s-115 -47 -115 -118s50 -118 115 -118z" />
    <glyph glyph-name="oslash" unicode="&#xf8;" horiz-adv-x="590" 
d="M490 430c43 -46 70 -109 70 -180c0 -149 -118 -264 -265 -264c-52 0 -100 14 -141 39l-29 -35l-61 34l37 45c-44 47 -71 110 -71 181c0 149 118 264 265 264c52 0 101 -14 141 -40l30 36l61 -35zM180 250c0 -25 6 -47 17 -65l144 174c-14 6 -29 9 -46 9
c-65 0 -115 -47 -115 -118zM295 132c65 0 115 47 115 118c0 25 -6 46 -16 64l-144 -174c13 -5 29 -8 45 -8z" />
    <glyph glyph-name="otilde" unicode="&#xf5;" horiz-adv-x="590" 
d="M115 563c0 171 105 189 196 133c34 -21 43 -16 43 24h120c0 -171 -105 -189 -196 -133c-34 21 -43 16 -43 -24h-120zM295 -14c-147 0 -265 115 -265 264s118 264 265 264s265 -115 265 -264s-118 -264 -265 -264zM295 132c65 0 115 47 115 118s-50 118 -115 118
s-115 -47 -115 -118s50 -118 115 -118z" />
    <glyph glyph-name="oe" unicode="&#x153;" horiz-adv-x="960" 
d="M569 190c21 -55 71 -70 115 -70c46 0 81 16 101 38l120 -69c-49 -68 -123 -103 -218 -103c-94 0 -162 39 -203 101c-41 -62 -108 -101 -194 -101c-147 0 -260 115 -260 264s113 264 260 264c85 0 153 -39 194 -101c40 62 107 101 199 101c146 0 247 -113 247 -264
c0 -21 -2 -41 -6 -60h-355zM566 304h215c-16 57 -60 77 -104 77c-56 0 -95 -27 -111 -77zM295 132c65 0 115 47 115 118s-50 118 -115 118s-115 -47 -115 -118s50 -118 115 -118z" />
    <glyph glyph-name="p" unicode="p" horiz-adv-x="623" 
d="M354 514c131 0 239 -115 239 -264s-108 -264 -239 -264c-67 0 -116 23 -149 61v-247h-150v700h150v-47c33 38 82 61 149 61zM324 128c69 0 119 47 119 122s-50 122 -119 122s-119 -47 -119 -122s50 -122 119 -122z" />
    <glyph glyph-name="thorn" unicode="&#xfe;" horiz-adv-x="623" 
d="M354 514c131 0 239 -115 239 -264s-108 -264 -239 -264c-67 0 -116 23 -149 61v-247h-150v900h150v-247c33 38 82 61 149 61zM324 128c69 0 119 47 119 122s-50 122 -119 122s-119 -47 -119 -122s50 -122 119 -122z" />
    <glyph glyph-name="q" unicode="q" horiz-adv-x="623" 
d="M418 500h150v-700h-150v247c-33 -38 -82 -61 -149 -61c-131 0 -239 115 -239 264s108 264 239 264c67 0 116 -23 149 -61v47zM299 128c69 0 119 47 119 122s-50 122 -119 122s-119 -47 -119 -122s50 -122 119 -122z" />
    <glyph glyph-name="r" unicode="r" horiz-adv-x="370" 
d="M205 411c20 67 87 99 150 99v-170c-62 10 -150 -15 -150 -114v-226h-150v500h150v-89z" />
    <glyph glyph-name="racute" unicode="&#x155;" horiz-adv-x="370" 
d="M367 700l-116 -140h-144l80 140h180zM205 411c20 67 87 99 150 99v-170c-62 10 -150 -15 -150 -114v-226h-150v500h150v-89z" />
    <glyph glyph-name="rcaron" unicode="&#x159;" horiz-adv-x="370" 
d="M118 550l-106 150h145l35 -55l35 55h145l-106 -150h-148zM205 411c20 67 87 99 150 99v-170c-62 10 -150 -15 -150 -114v-226h-150v500h150v-89z" />
    <glyph glyph-name="rcommaaccent" unicode="&#x157;" horiz-adv-x="370" 
d="M205 411c20 67 87 99 150 99v-170c-62 10 -150 -15 -150 -114v-226h-150v500h150v-89zM54 -270l10 210h140l-30 -210h-120z" />
    <glyph glyph-name="s" unicode="s" horiz-adv-x="468" 
d="M197 354c0 -57 246 -19 246 -204c0 -115 -100 -164 -208 -164c-100 0 -176 38 -215 119l130 74c13 -38 41 -59 85 -59c36 0 54 11 54 31c0 55 -246 26 -246 199c0 109 92 164 196 164c81 0 153 -36 195 -107l-128 -69c-14 26 -34 44 -67 44c-26 0 -42 -10 -42 -28z" />
    <glyph glyph-name="sacute" unicode="&#x15b;" horiz-adv-x="468" 
d="M402 710l-116 -140h-144l80 140h180zM197 354c0 -57 246 -19 246 -204c0 -115 -100 -164 -208 -164c-100 0 -176 38 -215 119l130 74c13 -38 41 -59 85 -59c36 0 54 11 54 31c0 55 -246 26 -246 199c0 109 92 164 196 164c81 0 153 -36 195 -107l-128 -69
c-14 26 -34 44 -67 44c-26 0 -42 -10 -42 -28z" />
    <glyph glyph-name="scaron" unicode="&#x161;" horiz-adv-x="468" 
d="M153 560l-106 150h145l35 -55l35 55h145l-106 -150h-148zM197 354c0 -57 246 -19 246 -204c0 -115 -100 -164 -208 -164c-100 0 -176 38 -215 119l130 74c13 -38 41 -59 85 -59c36 0 54 11 54 31c0 55 -246 26 -246 199c0 109 92 164 196 164c81 0 153 -36 195 -107
l-128 -69c-14 26 -34 44 -67 44c-26 0 -42 -10 -42 -28z" />
    <glyph glyph-name="scedilla" unicode="&#x15f;" horiz-adv-x="468" 
d="M443 150c0 -88 -58 -137 -134 -156v-40c27 -7 63 -29 63 -77c0 -63 -57 -103 -225 -93v104c65 -5 95 1 95 14c0 12 -21 17 -53 20v67c-77 10 -136 48 -169 116l130 74c13 -38 41 -59 85 -59c36 0 54 11 54 31c0 55 -246 26 -246 199c0 109 92 164 196 164
c81 0 153 -36 195 -107l-128 -69c-14 26 -34 44 -67 44c-26 0 -42 -10 -42 -28c0 -57 246 -19 246 -204z" />
    <glyph glyph-name="scommaaccent" unicode="&#x219;" horiz-adv-x="468" 
d="M197 354c0 -57 246 -19 246 -204c0 -115 -100 -164 -208 -164c-100 0 -176 38 -215 119l130 74c13 -38 41 -59 85 -59c36 0 54 11 54 31c0 55 -246 26 -246 199c0 109 92 164 196 164c81 0 153 -36 195 -107l-128 -69c-14 26 -34 44 -67 44c-26 0 -42 -10 -42 -28z
M170 -270l10 210h140l-30 -210h-120z" />
    <glyph glyph-name="germandbls" unicode="&#xdf;" horiz-adv-x="544" 
d="M276 -7v132c84 -9 103 17 103 51c0 57 -110 150 -110 213c0 52 54 80 54 135c0 27 -18 54 -54 54c-38 0 -64 -23 -64 -71v-507h-150v505c0 126 84 209 221 209c124 0 197 -77 197 -163s-50 -110 -50 -152c0 -57 106 -136 106 -253c0 -92 -52 -173 -253 -153z" />
    <glyph glyph-name="t" unicode="t" horiz-adv-x="388" 
d="M348 356h-103v-177c0 -43 37 -47 103 -43v-136c-196 -20 -253 39 -253 179v177h-80v144h80v95l150 45v-140h103v-144z" />
    <glyph glyph-name="tbar" unicode="&#x167;" horiz-adv-x="388" 
d="M348 356h-103v-48h75v-120h-75v-9c0 -43 37 -47 103 -43v-136c-196 -20 -253 39 -253 179v9h-55v120h55v48h-80v144h80v95l150 45v-140h103v-144z" />
    <glyph glyph-name="tcaron" unicode="&#x165;" horiz-adv-x="416" 
d="M296 730h140l-30 -190h-120zM245 640v-140h103v-144h-103v-177c0 -43 37 -47 103 -43v-136c-196 -20 -253 39 -253 179v177h-80v144h80v95z" />
    <glyph glyph-name="uni0163" unicode="&#x163;" horiz-adv-x="388" 
d="M348 356h-103v-177c0 -43 37 -47 103 -43v-136c-196 -20 -253 39 -253 179v177h-80v144h80v95l150 45v-140h103v-144zM152 -270l10 210h140l-30 -210h-120z" />
    <glyph glyph-name="uni021B" unicode="&#x21b;" horiz-adv-x="388" 
d="M348 356h-103v-177c0 -43 37 -47 103 -43v-136c-196 -20 -253 39 -253 179v177h-80v144h80v95l150 45v-140h103v-144zM152 -270l10 210h140l-30 -210h-120z" />
    <glyph glyph-name="u" unicode="u" horiz-adv-x="583" 
d="M378 500h150v-500h-150v47c-27 -37 -77 -61 -143 -61c-101 0 -187 72 -187 207v307h150v-285c0 -62 39 -91 87 -91c55 0 93 32 93 103v273z" />
    <glyph glyph-name="uacute" unicode="&#xfa;" horiz-adv-x="583" 
d="M458 700l-116 -140h-144l80 140h180zM378 500h150v-500h-150v47c-27 -37 -77 -61 -143 -61c-101 0 -187 72 -187 207v307h150v-285c0 -62 39 -91 87 -91c55 0 93 32 93 103v273z" />
    <glyph glyph-name="ucircumflex" unicode="&#xfb;" horiz-adv-x="583" 
d="M283 605l-35 -55h-145l106 150h148l106 -150h-145zM378 500h150v-500h-150v47c-27 -37 -77 -61 -143 -61c-101 0 -187 72 -187 207v307h150v-285c0 -62 39 -91 87 -91c55 0 93 32 93 103v273z" />
    <glyph glyph-name="udieresis" unicode="&#xfc;" horiz-adv-x="583" 
d="M193 540c-41 0 -75 34 -75 75s34 75 75 75s75 -34 75 -75s-34 -75 -75 -75zM383 540c-41 0 -75 34 -75 75s34 75 75 75s75 -34 75 -75s-34 -75 -75 -75zM378 500h150v-500h-150v47c-27 -37 -77 -61 -143 -61c-101 0 -187 72 -187 207v307h150v-285c0 -62 39 -91 87 -91
c55 0 93 32 93 103v273z" />
    <glyph glyph-name="ugrave" unicode="&#xf9;" horiz-adv-x="583" 
d="M378 560h-144l-116 140h180zM378 500h150v-500h-150v47c-27 -37 -77 -61 -143 -61c-101 0 -187 72 -187 207v307h150v-285c0 -62 39 -91 87 -91c55 0 93 32 93 103v273z" />
    <glyph glyph-name="uhungarumlaut" unicode="&#x171;" horiz-adv-x="583" 
d="M332 690l-86 -140h-148l80 140h154zM429 550h-148l90 140h154zM378 500h150v-500h-150v47c-27 -37 -77 -61 -143 -61c-101 0 -187 72 -187 207v307h150v-285c0 -62 39 -91 87 -91c55 0 93 32 93 103v273z" />
    <glyph glyph-name="umacron" unicode="&#x16b;" horiz-adv-x="583" 
d="M438 679v-120h-300v120h300zM378 500h150v-500h-150v47c-27 -37 -77 -61 -143 -61c-101 0 -187 72 -187 207v307h150v-285c0 -62 39 -91 87 -91c55 0 93 32 93 103v273z" />
    <glyph glyph-name="uogonek" unicode="&#x173;" horiz-adv-x="583" 
d="M528 0c-29 -32 -45 -64 -45 -85c-1 -16 7 -26 22 -26c6 -1 14 1 23 4v-90c-27 -11 -52 -17 -88 -17c-55 0 -100 28 -100 91c0 38 26 83 64 123h-26v47c-27 -37 -77 -61 -143 -61c-101 0 -187 72 -187 207v307h150v-285c0 -62 39 -91 87 -91c55 0 93 32 93 103v273h150
v-500z" />
    <glyph glyph-name="uring" unicode="&#x16f;" horiz-adv-x="583" 
d="M288 535c-78 0 -133 54 -133 125s55 125 133 125c80 0 133 -54 133 -125s-53 -125 -133 -125zM288 694c-23 0 -35 -15 -35 -34s12 -34 35 -34c24 0 36 15 36 34s-12 34 -36 34zM378 500h150v-500h-150v47c-27 -37 -77 -61 -143 -61c-101 0 -187 72 -187 207v307h150v-285
c0 -62 39 -91 87 -91c55 0 93 32 93 103v273z" />
    <glyph glyph-name="v" unicode="v" horiz-adv-x="540" 
d="M374 500h166l-185 -500h-170l-185 500h166l104 -317z" />
    <glyph glyph-name="w" unicode="w" horiz-adv-x="770" 
d="M605 500h160l-160 -500h-140l-80 267l-80 -267h-140l-160 500h160l72 -268l78 268h140l78 -268z" />
    <glyph glyph-name="wacute" unicode="&#x1e83;" horiz-adv-x="770" 
d="M555 700l-116 -140h-144l80 140h180zM605 500h160l-160 -500h-140l-80 267l-80 -267h-140l-160 500h160l72 -268l78 268h140l78 -268z" />
    <glyph glyph-name="wcircumflex" unicode="&#x175;" horiz-adv-x="770" 
d="M380 605l-35 -55h-145l106 150h148l106 -150h-145zM605 500h160l-160 -500h-140l-80 267l-80 -267h-140l-160 500h160l72 -268l78 268h140l78 -268z" />
    <glyph glyph-name="wdieresis" unicode="&#x1e85;" horiz-adv-x="770" 
d="M290 540c-41 0 -75 34 -75 75s34 75 75 75s75 -34 75 -75s-34 -75 -75 -75zM480 540c-41 0 -75 34 -75 75s34 75 75 75s75 -34 75 -75s-34 -75 -75 -75zM605 500h160l-160 -500h-140l-80 267l-80 -267h-140l-160 500h160l72 -268l78 268h140l78 -268z" />
    <glyph glyph-name="wgrave" unicode="&#x1e81;" horiz-adv-x="770" 
d="M475 560h-144l-116 140h180zM605 500h160l-160 -500h-140l-80 267l-80 -267h-140l-160 500h160l72 -268l78 268h140l78 -268z" />
    <glyph glyph-name="x" unicode="x" horiz-adv-x="530" 
d="M530 0h-172l-93 132l-93 -132h-172l179 254l-173 246h172l87 -124l87 124h172l-173 -246z" />
    <glyph glyph-name="y" unicode="y" horiz-adv-x="530" 
d="M370 500h160l-171 -485c-56 -159 -145 -222 -285 -215v140c70 0 103 22 125 83l-199 477h165l111 -306z" />
    <glyph glyph-name="yacute" unicode="&#xfd;" horiz-adv-x="530" 
d="M436 700l-116 -140h-144l80 140h180zM370 500h160l-171 -485c-56 -159 -145 -222 -285 -215v140c70 0 103 22 125 83l-199 477h165l111 -306z" />
    <glyph glyph-name="ycircumflex" unicode="&#x177;" horiz-adv-x="530" 
d="M261 605l-35 -55h-145l106 150h148l106 -150h-145zM370 500h160l-171 -485c-56 -159 -145 -222 -285 -215v140c70 0 103 22 125 83l-199 477h165l111 -306z" />
    <glyph glyph-name="ydieresis" unicode="&#xff;" horiz-adv-x="530" 
d="M171 540c-41 0 -75 34 -75 75s34 75 75 75s75 -34 75 -75s-34 -75 -75 -75zM361 540c-41 0 -75 34 -75 75s34 75 75 75s75 -34 75 -75s-34 -75 -75 -75zM370 500h160l-171 -485c-56 -159 -145 -222 -285 -215v140c70 0 103 22 125 83l-199 477h165l111 -306z" />
    <glyph glyph-name="ygrave" unicode="&#x1ef3;" horiz-adv-x="530" 
d="M356 560h-144l-116 140h180zM370 500h160l-171 -485c-56 -159 -145 -222 -285 -215v140c70 0 103 22 125 83l-199 477h165l111 -306z" />
    <glyph glyph-name="z" unicode="z" horiz-adv-x="475" 
d="M241 140h199v-140h-400v100l189 260h-179v140h380v-100z" />
    <glyph glyph-name="zacute" unicode="&#x17a;" horiz-adv-x="475" 
d="M410 700l-116 -140h-144l80 140h180zM241 140h199v-140h-400v100l189 260h-179v140h380v-100z" />
    <glyph glyph-name="zcaron" unicode="&#x17e;" horiz-adv-x="475" 
d="M161 550l-106 150h145l35 -55l35 55h145l-106 -150h-148zM241 140h199v-140h-400v100l189 260h-179v140h380v-100z" />
    <glyph glyph-name="zdotaccent" unicode="&#x17c;" horiz-adv-x="475" 
d="M240 545c-46 0 -85 39 -85 85s39 85 85 85s85 -39 85 -85s-39 -85 -85 -85zM241 140h199v-140h-400v100l189 260h-179v140h380v-100z" />
    <glyph glyph-name="f_f_j" horiz-adv-x="850" 
d="M795 500v-500c0 -156 -72 -223 -230 -214v144c55 -3 80 17 80 70v356h-128v-356h-150v356h-130v-356h-150v356h-67v144h67c0 140 77 224 243 214v-144c-56 5 -93 -12 -93 -70h130v10c0 140 77 214 243 214c41 0 82 -5 125 -14v-138c-45 5 -87 8 -125 8
c-56 0 -93 -12 -93 -70v-10h278z" />
    <glyph glyph-name="f_j" horiz-adv-x="570" 
d="M515 500v-500c0 -156 -72 -223 -230 -214v144c55 -3 80 17 80 70v356h-128v-356h-150v356h-67v144h67c0 140 77 214 243 214c41 0 82 -5 125 -14v-138c-45 5 -87 8 -125 8c-56 0 -93 -12 -93 -70h278z" />
    <glyph glyph-name="uni0410" unicode="&#x410;" horiz-adv-x="680" 
d="M505 0l-35 110h-260l-35 -110h-175l238 700h204l238 -700h-175zM258 260h164l-82 257z" />
    <glyph glyph-name="uni0411" unicode="&#x411;" horiz-adv-x="585" 
d="M330 440c143 0 240 -87 240 -220s-97 -220 -240 -220h-270v700h450v-154h-290v-106h110zM330 150c44 0 80 19 80 70s-36 70 -80 70h-110v-140h110z" />
    <glyph glyph-name="uni0412" unicode="&#x412;" horiz-adv-x="600" 
d="M494 363c52 -33 86 -87 86 -158c0 -124 -101 -205 -226 -205h-294v700h274c122 0 221 -79 221 -200c0 -58 -23 -104 -61 -137zM334 550h-114v-124h114c36 0 61 26 61 62s-24 62 -61 62zM354 150c40 0 66 28 66 67s-26 67 -66 67h-134v-134h134z" />
    <glyph glyph-name="uni0413" unicode="&#x413;" horiz-adv-x="470" 
d="M460 700v-154h-240v-546h-160v700h400z" />
    <glyph glyph-name="uni0403" unicode="&#x403;" horiz-adv-x="470" 
d="M436 899l-116 -140h-144l80 140h180zM460 700v-154h-240v-546h-160v700h400z" />
    <glyph glyph-name="uni0490" unicode="&#x490;" horiz-adv-x="470" 
d="M300 820h160v-274h-240v-546h-160v700h240v120z" />
    <glyph glyph-name="uni0414" unicode="&#x414;" horiz-adv-x="710" 
d="M610 154h75v-288h-160v134h-350v-134h-160v288h71c32 46 55 113 55 232v314h469v-546zM256 154h194v396h-149v-166c0 -115 -20 -185 -45 -230z" />
    <glyph glyph-name="uni0415" unicode="&#x415;" horiz-adv-x="530" 
d="M220 154h280v-154h-440v700h435v-154h-275v-116h250v-152h-250v-124z" />
    <glyph glyph-name="uni0401" unicode="&#x401;" horiz-adv-x="530" 
d="M183 740c-41 0 -75 34 -75 75s34 75 75 75s75 -34 75 -75s-34 -75 -75 -75zM373 740c-41 0 -75 34 -75 75s34 75 75 75s75 -34 75 -75s-34 -75 -75 -75zM220 154h280v-154h-440v700h435v-154h-275v-116h250v-152h-250v-124z" />
    <glyph glyph-name="uni0416" unicode="&#x416;" horiz-adv-x="922" 
d="M912 0h-177l-194 310v-310h-160v310l-194 -310h-177l226 356l-216 344h177l184 -308v308h160v-308l184 308h177l-216 -344z" />
    <glyph glyph-name="uni0417" unicode="&#x417;" horiz-adv-x="560" 
d="M445 362c59 -33 95 -89 95 -164c0 -131 -112 -212 -259 -212c-144 0 -225 67 -266 166l138 79c18 -54 53 -95 128 -95c67 0 99 28 99 74s-33 74 -100 74h-89v142h69c63 0 95 26 95 69s-24 69 -81 69c-62 0 -93 -37 -111 -80l-137 79c43 86 118 151 248 151
c139 0 241 -79 241 -207c0 -63 -26 -111 -70 -145z" />
    <glyph glyph-name="uni0418" unicode="&#x418;" horiz-adv-x="670" 
d="M450 0v380l-270 -380h-120v700h160v-380l270 380h120v-700h-160z" />
    <glyph glyph-name="uni0419" unicode="&#x419;" horiz-adv-x="670" 
d="M185 759v130h300v-130h-300zM450 0v380l-270 -380h-120v700h160v-380l270 380h120v-700h-160z" />
    <glyph glyph-name="uni041A" unicode="&#x41a;" horiz-adv-x="626" 
d="M626 0h-182l-224 324v-324h-160v700h160v-304l214 304h182l-236 -341z" />
    <glyph glyph-name="uni040C" unicode="&#x40c;" horiz-adv-x="626" 
d="M486 899l-116 -140h-144l80 140h180zM626 0h-182l-224 324v-324h-160v700h160v-304l214 304h182l-236 -341z" />
    <glyph glyph-name="uni041B" unicode="&#x41b;" horiz-adv-x="670" 
d="M10 0v150c72 -11 116 11 116 128v422h484v-700h-160v546h-164v-262c0 -250 -147 -298 -276 -284z" />
    <glyph glyph-name="uni041C" unicode="&#x41c;" horiz-adv-x="820" 
d="M760 700v-700h-160v407l-181 -297h-18l-181 297v-407h-160v700h160l190 -311l190 311h160z" />
    <glyph glyph-name="uni041D" unicode="&#x41d;" horiz-adv-x="660" 
d="M440 700h160v-700h-160v278h-220v-278h-160v700h160v-268h220v268z" />
    <glyph glyph-name="uni041E" unicode="&#x41e;" horiz-adv-x="788" 
d="M394 -14c-201 0 -364 158 -364 364s163 364 364 364s364 -158 364 -364s-163 -364 -364 -364zM394 142c114 0 204 83 204 208s-90 208 -204 208s-204 -83 -204 -208s90 -208 204 -208z" />
    <glyph glyph-name="uni041F" unicode="&#x41f;" horiz-adv-x="650" 
d="M590 700v-700h-160v546h-210v-546h-160v700h530z" />
    <glyph glyph-name="uni0420" unicode="&#x420;" horiz-adv-x="590" 
d="M325 700c138 0 245 -107 245 -240s-107 -240 -245 -240h-105v-220h-160v700h265zM325 370c49 0 85 39 85 90s-36 90 -85 90h-105v-180h105z" />
    <glyph glyph-name="uni0421" unicode="&#x421;" horiz-adv-x="719" 
d="M394 -14c-211 0 -364 158 -364 364s153 364 364 364c127 0 239 -63 300 -162l-138 -80c-31 54 -91 86 -162 86c-124 0 -204 -83 -204 -208s80 -208 204 -208c71 0 132 32 162 86l138 -80c-60 -99 -172 -162 -300 -162z" />
    <glyph glyph-name="uni0422" unicode="&#x422;" horiz-adv-x="540" 
d="M530 700v-154h-180v-546h-160v546h-180v154h520z" />
    <glyph glyph-name="uni0423" unicode="&#x423;" horiz-adv-x="610" 
d="M440 700h160l-202 -494c-62 -151 -163 -213 -294 -206v150c73 -7 113 20 140 69l-224 481h160l137 -306z" />
    <glyph glyph-name="uni040E" unicode="&#x40e;" horiz-adv-x="610" 
d="M456 888v-130h-300v130h300zM440 700h160l-202 -494c-62 -151 -163 -213 -294 -206v150c73 -7 113 20 140 69l-224 481h160l137 -306z" />
    <glyph glyph-name="uni0424" unicode="&#x424;" horiz-adv-x="824" 
d="M804 350c0 -159 -124 -265 -314 -288v-82h-156v82c-190 23 -314 129 -314 288s124 265 314 288v82h156v-82c190 -23 314 -129 314 -288zM180 350c0 -80 50 -127 154 -141v282c-104 -14 -154 -61 -154 -141zM490 209c104 14 154 61 154 141s-50 127 -154 141v-282z" />
    <glyph glyph-name="uni0425" unicode="&#x425;" horiz-adv-x="620" 
d="M610 0h-182l-118 202l-118 -202h-182l209 359l-199 341h182l108 -185l108 185h182l-199 -341z" />
    <glyph glyph-name="uni0427" unicode="&#x427;" horiz-adv-x="635" 
d="M415 700h160v-700h-160v244c-39 -15 -77 -22 -119 -22c-139 0 -251 81 -251 228v250h160v-226c0 -65 40 -98 95 -98c43 0 79 7 115 23v301z" />
    <glyph glyph-name="uni0426" unicode="&#x426;" horiz-adv-x="690" 
d="M590 154h75v-288h-160v134h-445v700h160v-546h210v546h160v-546z" />
    <glyph glyph-name="uni0428" unicode="&#x428;" horiz-adv-x="940" 
d="M720 700h160v-700h-820v700h160v-546h170v546h160v-546h170v546z" />
    <glyph glyph-name="uni0429" unicode="&#x429;" horiz-adv-x="980" 
d="M880 154h75v-288h-160v134h-735v700h160v-546h170v546h160v-546h170v546h160v-546z" />
    <glyph glyph-name="uni040F" unicode="&#x40f;" horiz-adv-x="650" 
d="M430 700h160v-700h-185v-134h-160v134h-185v700h160v-546h210v546z" />
    <glyph glyph-name="uni042C" unicode="&#x42c;" horiz-adv-x="590" 
d="M325 480c138 0 245 -107 245 -240s-107 -240 -245 -240h-265v700h160v-220h105zM325 150c49 0 85 39 85 90s-36 90 -85 90h-105v-180h105z" />
    <glyph glyph-name="uni042A" unicode="&#x42a;" horiz-adv-x="690" 
d="M160 0v546h-160v154h320v-220h105c138 0 245 -107 245 -240s-107 -240 -245 -240h-265zM320 150h105c49 0 85 39 85 90s-36 90 -85 90h-105v-180z" />
    <glyph glyph-name="uni042B" unicode="&#x42b;" horiz-adv-x="850" 
d="M60 0v700h160v-220h105c138 0 245 -107 245 -240s-107 -240 -245 -240h-265zM630 0v700h160v-700h-160zM220 150h105c49 0 85 39 85 90s-36 90 -85 90h-105v-180z" />
    <glyph glyph-name="uni0409" unicode="&#x409;" horiz-adv-x="950" 
d="M685 450c138 0 245 -92 245 -225s-107 -225 -245 -225h-245v546h-154v-262c0 -250 -147 -298 -276 -286v150c72 -9 116 13 116 130v422h474v-250h85zM685 150c49 0 85 24 85 75s-36 75 -85 75h-85v-150h85z" />
    <glyph glyph-name="uni040A" unicode="&#x40a;" horiz-adv-x="950" 
d="M685 450c138 0 245 -92 245 -225s-107 -225 -245 -225h-245v300h-220v-300h-160v700h160v-250h220v250h160v-250h85zM685 150c49 0 85 24 85 75s-36 75 -85 75h-85v-150h85z" />
    <glyph glyph-name="uni0405" unicode="&#x405;" horiz-adv-x="585" 
d="M305 -14c-147 0 -241 70 -280 173l138 80c25 -58 68 -97 147 -97c76 0 95 30 95 57c0 43 -40 60 -145 89c-104 29 -206 79 -206 213c0 135 114 213 235 213c115 0 205 -55 256 -158l-135 -79c-24 50 -57 81 -121 81c-50 0 -75 -25 -75 -53c0 -32 17 -54 126 -87
c106 -32 225 -69 225 -217c0 -135 -108 -215 -260 -215z" />
    <glyph glyph-name="uni0404" unicode="&#x404;" horiz-adv-x="719" 
d="M394 142c71 0 132 32 162 86l138 -80c-60 -99 -172 -162 -300 -162c-211 0 -364 158 -364 364s153 364 364 364c127 0 239 -63 300 -162l-138 -80c-31 54 -91 86 -162 86c-97 0 -167 -51 -193 -133h286v-150h-286c26 -82 96 -133 193 -133z" />
    <glyph glyph-name="uni042D" unicode="&#x42d;" horiz-adv-x="719" 
d="M325 714c211 0 364 -158 364 -364s-153 -364 -364 -364c-128 0 -240 63 -300 162l138 80c30 -54 91 -86 162 -86c97 0 167 51 193 133h-286v150h286c-26 82 -96 133 -193 133c-71 0 -131 -32 -162 -86l-138 80c61 99 173 162 300 162z" />
    <glyph glyph-name="uni0406" unicode="&#x406;" horiz-adv-x="280" 
d="M60 700h160v-700h-160v700z" />
    <glyph glyph-name="uni0407" unicode="&#x407;" horiz-adv-x="280" 
d="M45 740c-41 0 -75 34 -75 75s34 75 75 75s75 -34 75 -75s-34 -75 -75 -75zM235 740c-41 0 -75 34 -75 75s34 75 75 75s75 -34 75 -75s-34 -75 -75 -75zM60 700h160v-700h-160v700z" />
    <glyph glyph-name="uni0408" unicode="&#x408;" horiz-adv-x="574" 
d="M267 -14c-111 0 -191 47 -237 136l139 80c22 -39 45 -60 99 -60c70 0 91 40 91 83v475h160v-475c0 -154 -108 -239 -252 -239z" />
    <glyph glyph-name="uni040B" unicode="&#x40b;" horiz-adv-x="710" 
d="M472 464c114 0 188 -67 188 -197v-267h-160v249c0 51 -27 71 -68 71c-35 0 -61 -6 -92 -16v-304h-160v546h-170v154h520v-154h-190v-100c49 13 88 18 132 18z" />
    <glyph glyph-name="uni042E" unicode="&#x42e;" horiz-adv-x="1060" 
d="M666 714c201 0 364 -158 364 -364c0 -204 -163 -364 -364 -364c-179 0 -324 125 -354 297h-92v-283h-160v700h160v-263h96c37 162 178 277 350 277zM666 142c114 0 204 83 204 208s-90 208 -204 208s-204 -79 -204 -208c0 -125 90 -208 204 -208z" />
    <glyph glyph-name="uni042F" unicode="&#x42f;" horiz-adv-x="625" 
d="M565 700v-700h-160v230h-51l-149 -230h-180l164 250c-85 36 -144 119 -144 210c0 133 107 240 240 240h280zM285 370h120v180h-120c-44 0 -80 -39 -80 -90s36 -90 80 -90z" />
    <glyph glyph-name="uni0402" unicode="&#x402;" horiz-adv-x="705" 
d="M472 464c114 0 188 -67 188 -197v-63c0 -156 -72 -223 -230 -214v149c55 -3 70 17 70 65v45c0 51 -27 71 -68 71c-35 0 -61 -6 -92 -16v-304h-160v546h-170v154h520v-154h-190v-100c49 13 88 18 132 18z" />
    <glyph glyph-name="uni0414.loclBGR" horiz-adv-x="740" 
d="M642 154h83v-288h-160v134h-390v-134h-160v288h83l170 546h204zM265 154h210l-105 367z" />
    <glyph glyph-name="uni041B.loclBGR" horiz-adv-x="660" 
d="M228 700h204l228 -700h-175l-155 515l-155 -515h-175z" />
    <glyph glyph-name="uni0424.loclBGR" horiz-adv-x="864" 
d="M834 350c0 -197 -126 -331 -327 -357v-93h-150v93c-201 26 -327 160 -327 357s126 331 327 357v93h150v-93c201 -26 327 -160 327 -357zM190 350c0 -115 52 -189 167 -210v420c-115 -21 -167 -95 -167 -210zM507 140c115 21 167 95 167 210s-52 189 -167 210v-420z" />
    <glyph glyph-name="uni0414.ss01" horiz-adv-x="710" 
d="M610 154h75v-154h-670v154h71c32 46 55 113 55 232v314h469v-546zM256 154h194v396h-149v-166c0 -115 -20 -185 -45 -230z" />
    <glyph glyph-name="uni0426.ss01" horiz-adv-x="690" 
d="M590 154h75v-154h-605v700h160v-546h210v546h160v-546z" />
    <glyph glyph-name="uni0429.ss01" horiz-adv-x="980" 
d="M880 154h75v-154h-895v700h160v-546h170v546h160v-546h170v546h160v-546z" />
    <glyph glyph-name="uni0414.loclBGR.ss01" horiz-adv-x="740" 
d="M642 154h83v-154h-710v154h83l170 546h204zM265 154h210l-105 367z" />
    <glyph glyph-name="uni0430" unicode="&#x430;" horiz-adv-x="623" 
d="M418 500h150v-500h-150v47c-33 -38 -82 -61 -149 -61c-131 0 -239 115 -239 264s108 264 239 264c67 0 116 -23 149 -61v47zM299 128c69 0 119 47 119 122s-50 122 -119 122s-119 -47 -119 -122s50 -122 119 -122z" />
    <glyph glyph-name="uni0431" unicode="&#x431;" horiz-adv-x="567" 
d="M297 -14c-166 0 -267 118 -267 272c0 161 31 246 191 325c107 53 151 66 180 137l124 -71c-20 -84 -82 -121 -188 -161c-89 -33 -115 -62 -129 -97c36 32 85 47 137 47c92 0 207 -76 207 -218c0 -135 -98 -234 -255 -234zM296 121c62 0 106 42 106 99
c0 58 -46 101 -109 101c-52 0 -106 -35 -106 -97c0 -61 48 -103 109 -103z" />
    <glyph glyph-name="uni0432" unicode="&#x432;" horiz-adv-x="515" 
d="M428 256c43 -23 67 -62 67 -113c0 -83 -59 -143 -170 -143h-270v500h250c111 0 170 -60 170 -143c0 -43 -16 -78 -47 -101zM289 380h-94v-70h94c27 0 44 10 44 34c0 25 -17 36 -44 36zM305 124c26 0 44 12 44 37c0 24 -18 35 -44 35h-110v-72h110z" />
    <glyph glyph-name="uni0433" unicode="&#x433;" horiz-adv-x="415" 
d="M405 500v-144h-200v-356h-150v500h350z" />
    <glyph glyph-name="uni0453" unicode="&#x453;" horiz-adv-x="415" 
d="M386 700l-116 -140h-144l80 140h180zM405 500v-144h-200v-356h-150v500h350z" />
    <glyph glyph-name="uni0491" unicode="&#x491;" horiz-adv-x="415" 
d="M259 600h146v-244h-200v-356h-150v500h204v100z" />
    <glyph glyph-name="uni0434" unicode="&#x434;" horiz-adv-x="600" 
d="M515 140h65v-274h-146v134h-278v-134h-146v274h62c25 39 40 87 40 173v187h403v-360zM229 140h140v226h-111v-53c0 -73 -10 -128 -29 -173z" />
    <glyph glyph-name="uni0435" unicode="&#x435;" 
d="M189 190c19 -52 65 -70 120 -70c41 0 76 16 96 38l120 -69c-49 -68 -123 -103 -218 -103c-171 0 -277 115 -277 264s108 264 266 264c146 0 254 -113 254 -264c0 -21 -2 -41 -6 -60h-355zM186 302h215c-16 58 -61 79 -106 79c-57 0 -95 -28 -109 -79z" />
    <glyph glyph-name="uni0451" unicode="&#x451;" 
d="M195 545c-41 0 -75 34 -75 75s34 75 75 75s75 -34 75 -75s-34 -75 -75 -75zM385 545c-41 0 -75 34 -75 75s34 75 75 75s75 -34 75 -75s-34 -75 -75 -75zM189 190c19 -52 65 -70 120 -70c41 0 76 16 96 38l120 -69c-49 -68 -123 -103 -218 -103c-171 0 -277 115 -277 264
s108 264 266 264c146 0 254 -113 254 -264c0 -21 -2 -41 -6 -60h-355zM186 302h215c-16 58 -61 79 -106 79c-57 0 -95 -28 -109 -79z" />
    <glyph glyph-name="uni0436" unicode="&#x436;" horiz-adv-x="770" 
d="M760 0h-166l-136 217v-217h-146v217l-136 -217h-166l166 250l-156 250h166l126 -214v214h146v-214l126 214h166l-156 -250z" />
    <glyph glyph-name="uni0437" unicode="&#x437;" horiz-adv-x="452" 
d="M359 254c47 -25 73 -67 73 -118c0 -83 -72 -150 -207 -150c-100 0 -171 38 -210 119l121 72c14 -39 45 -61 91 -61c37 0 59 14 59 39c0 22 -14 35 -47 35h-70v126h54c32 0 47 12 47 34c0 24 -19 36 -47 36c-38 0 -64 -18 -82 -58l-121 69c42 81 114 117 200 117
c122 0 192 -71 192 -150c0 -46 -17 -85 -53 -110z" />
    <glyph glyph-name="uni0438" unicode="&#x438;" 
d="M415 500h110v-500h-146v250l-214 -250h-110v500h146v-250z" />
    <glyph glyph-name="uni0439" unicode="&#x439;" 
d="M140 559v130h300v-130h-300zM415 500h110v-500h-146v250l-214 -250h-110v500h146v-250z" />
    <glyph glyph-name="uni043A" unicode="&#x43a;" horiz-adv-x="535" 
d="M535 0h-170l-160 221v-221h-150v500h150v-219l150 219h175l-182 -250z" />
    <glyph glyph-name="uni045C" unicode="&#x45c;" horiz-adv-x="535" 
d="M446 700l-116 -140h-144l80 140h180zM535 0h-170l-160 221v-221h-150v500h150v-219l150 219h175l-182 -250z" />
    <glyph glyph-name="uni043B" unicode="&#x43b;" horiz-adv-x="545" 
d="M490 500v-500h-150v356h-108v-149c0 -151 -76 -224 -222 -207v140c47 -14 72 15 72 77v283h408z" />
    <glyph glyph-name="uni043C" unicode="&#x43c;" horiz-adv-x="640" 
d="M585 500v-500h-144v258l-112 -174h-18l-112 174v-258h-144v500h144l121 -189l121 189h144z" />
    <glyph glyph-name="uni043D" unicode="&#x43d;" 
d="M375 500h150v-500h-150v180h-170v-180h-150v500h150v-180h170v180z" />
    <glyph glyph-name="uni043E" unicode="&#x43e;" horiz-adv-x="590" 
d="M295 -14c-147 0 -265 115 -265 264s118 264 265 264s265 -115 265 -264s-118 -264 -265 -264zM295 132c65 0 115 47 115 118s-50 118 -115 118s-115 -47 -115 -118s50 -118 115 -118z" />
    <glyph glyph-name="uni043F" unicode="&#x43f;" 
d="M525 500v-500h-150v360h-170v-360h-150v500h470z" />
    <glyph glyph-name="uni0440" unicode="&#x440;" horiz-adv-x="623" 
d="M354 514c131 0 239 -115 239 -264s-108 -264 -239 -264c-67 0 -116 23 -149 61v-247h-150v700h150v-47c33 38 82 61 149 61zM324 128c69 0 119 47 119 122s-50 122 -119 122s-119 -47 -119 -122s50 -122 119 -122z" />
    <glyph glyph-name="uni0441" unicode="&#x441;" horiz-adv-x="531" 
d="M295 -14c-152 0 -265 115 -265 264s113 264 265 264c97 0 183 -51 226 -128l-131 -76c-17 35 -53 56 -97 56c-65 0 -113 -47 -113 -116s48 -116 113 -116c44 0 81 21 97 56l131 -75c-43 -78 -128 -129 -226 -129z" />
    <glyph glyph-name="uni0442" unicode="&#x442;" horiz-adv-x="470" 
d="M460 500v-144h-149v-356h-150v356h-151v144h450z" />
    <glyph glyph-name="uni0443" unicode="&#x443;" horiz-adv-x="530" 
d="M370 500h160l-171 -485c-56 -159 -155 -222 -285 -215v140c67 0 99 16 122 69l-196 491h160l116 -307z" />
    <glyph glyph-name="uni045E" unicode="&#x45e;" horiz-adv-x="530" 
d="M416 689v-130h-300v130h300zM370 500h160l-171 -485c-56 -159 -155 -222 -285 -215v140c67 0 99 16 122 69l-196 491h160l116 -307z" />
    <glyph glyph-name="uni0444" unicode="&#x444;" horiz-adv-x="690" 
d="M660 250c0 -129 -89 -232 -242 -256v-194h-146v194c-153 24 -242 127 -242 256s89 232 242 256v194h146v-194c153 -24 242 -127 242 -256zM178 250c0 -55 32 -96 94 -113v226c-62 -17 -94 -58 -94 -113zM418 137c62 17 94 58 94 113s-32 96 -94 113v-226z" />
    <glyph glyph-name="uni0445" unicode="&#x445;" horiz-adv-x="530" 
d="M530 0h-172l-93 132l-93 -132h-172l179 254l-173 246h172l87 -124l87 124h172l-173 -246z" />
    <glyph glyph-name="uni0447" unicode="&#x447;" horiz-adv-x="545" 
d="M340 500h150v-500h-150v150c-34 -10 -70 -16 -110 -16c-112 0 -200 58 -200 181v185h150v-165c0 -48 38 -61 80 -61c34 0 59 6 80 16v210z" />
    <glyph glyph-name="uni0446" unicode="&#x446;" horiz-adv-x="610" 
d="M505 140h85v-274h-146v134h-389v500h150v-360h150v360h150v-360z" />
    <glyph glyph-name="uni0448" unicode="&#x448;" horiz-adv-x="840" 
d="M635 500h150v-500h-730v500h150v-360h140v360h150v-360h140v360z" />
    <glyph glyph-name="uni0449" unicode="&#x449;" horiz-adv-x="850" 
d="M765 140h65v-274h-146v134h-629v500h150v-360h130v360h150v-360h130v360h150v-360z" />
    <glyph glyph-name="uni045F" unicode="&#x45f;" 
d="M375 500h150v-500h-162v-134h-146v134h-162v500h150v-360h170v360z" />
    <glyph glyph-name="uni044C" unicode="&#x44c;" horiz-adv-x="505" 
d="M289 350c121 0 196 -70 196 -175s-75 -175 -196 -175h-234v500h150v-150h84zM290 130c30 0 49 19 49 45s-19 45 -49 45h-85v-90h85z" />
    <glyph glyph-name="uni044A" unicode="&#x44a;" horiz-adv-x="585" 
d="M369 350c121 0 196 -70 196 -175s-75 -175 -196 -175h-234v356h-135v144h285v-150h84zM370 130c30 0 49 19 49 45s-19 45 -49 45h-85v-90h85z" />
    <glyph glyph-name="uni044B" unicode="&#x44b;" horiz-adv-x="740" 
d="M289 350c121 0 196 -70 196 -175s-75 -175 -196 -175h-234v500h150v-150h84zM535 500h150v-500h-150v500zM290 130c30 0 49 19 49 45s-19 45 -49 45h-85v-90h85z" />
    <glyph glyph-name="uni0459" unicode="&#x459;" horiz-adv-x="755" 
d="M559 340c111 0 176 -65 176 -170s-68 -170 -176 -170h-229v356h-98v-149c0 -151 -76 -224 -222 -215v140c47 -6 72 23 72 85v283h398v-160h79zM560 130c20 0 39 14 39 40s-19 40 -39 40h-80v-80h80z" />
    <glyph glyph-name="uni045A" unicode="&#x45a;" horiz-adv-x="790" 
d="M584 340c111 0 186 -65 186 -170s-78 -170 -186 -170h-229v200h-160v-200h-150v500h150v-160h160v160h150v-160h79zM585 130c20 0 39 14 39 40s-19 40 -39 40h-80v-80h80z" />
    <glyph glyph-name="uni0455" unicode="&#x455;" horiz-adv-x="468" 
d="M197 354c0 -57 246 -19 246 -204c0 -115 -100 -164 -208 -164c-100 0 -176 38 -215 119l130 74c13 -38 41 -59 85 -59c36 0 54 11 54 31c0 55 -246 26 -246 199c0 109 92 164 196 164c81 0 153 -36 195 -107l-128 -69c-14 26 -34 44 -67 44c-26 0 -42 -10 -42 -28z" />
    <glyph glyph-name="uni0454" unicode="&#x454;" horiz-adv-x="536" 
d="M293 129c55 0 91 26 106 58l127 -72c-43 -78 -128 -129 -231 -129c-152 0 -265 105 -265 264s113 264 265 264c103 0 188 -50 231 -128l-127 -73c-16 32 -51 58 -106 58c-41 0 -76 -21 -96 -54h139v-134h-139c20 -33 55 -54 96 -54z" />
    <glyph glyph-name="uni044D" unicode="&#x44d;" horiz-adv-x="536" 
d="M241 514c152 0 265 -105 265 -264s-113 -264 -265 -264c-103 0 -188 51 -231 129l127 72c15 -32 51 -58 106 -58c41 0 76 21 96 54h-139v134h139c-20 33 -55 54 -96 54c-55 0 -90 -26 -106 -58l-127 73c43 78 128 128 231 128z" />
    <glyph glyph-name="uni0456" unicode="&#x456;" horiz-adv-x="260" 
d="M130 544c-49 0 -90 41 -90 90s41 90 90 90s90 -41 90 -90s-41 -90 -90 -90zM55 0v500h150v-500h-150z" />
    <glyph glyph-name="uni0457" unicode="&#x457;" horiz-adv-x="260" 
d="M35 540c-41 0 -75 34 -75 75s34 75 75 75s75 -34 75 -75s-34 -75 -75 -75zM225 540c-41 0 -75 34 -75 75s34 75 75 75s75 -34 75 -75s-34 -75 -75 -75zM55 0v500h150v-500h-150z" />
    <glyph glyph-name="uni0458" unicode="&#x458;" horiz-adv-x="275" 
d="M145 544c-49 0 -90 41 -90 90s41 90 90 90s90 -41 90 -90s-41 -90 -90 -90zM70 0v500h150v-500c0 -156 -72 -223 -230 -214v144c55 -3 80 17 80 70z" />
    <glyph glyph-name="uni045B" unicode="&#x45b;" horiz-adv-x="588" 
d="M353 514c101 0 187 -72 187 -207v-307h-150v285c0 62 -39 91 -87 91c-55 0 -93 -32 -93 -103v-273h-150v546h-60v94h60v60h150v-60h140v-94h-140v-93c27 37 77 61 143 61z" />
    <glyph glyph-name="uni044E" unicode="&#x44e;" horiz-adv-x="815" 
d="M520 514c147 0 265 -115 265 -264s-118 -264 -265 -264c-123 0 -223 80 -252 194h-63v-180h-150v500h150v-180h63c29 114 129 194 252 194zM520 132c65 0 115 47 115 118s-50 118 -115 118s-115 -47 -115 -118s50 -118 115 -118z" />
    <glyph glyph-name="uni044F" unicode="&#x44f;" horiz-adv-x="525" 
d="M470 500v-500h-146v144h-31l-103 -144h-170l117 165c-62 31 -97 95 -97 157c0 88 65 178 186 178h244zM239 368c-32 0 -53 -19 -53 -51c0 -31 21 -49 53 -49h85v100h-85z" />
    <glyph glyph-name="uni0452" unicode="&#x452;" horiz-adv-x="588" 
d="M353 514c101 0 187 -72 187 -207v-307c0 -156 -72 -223 -230 -214v144c55 -3 80 17 80 70v285c0 62 -39 91 -87 91c-55 0 -93 -32 -93 -103v-273h-150v546h-60v94h60v60h150v-60h140v-94h-140v-93c27 37 77 61 143 61z" />
    <glyph glyph-name="uni0432.loclBGR" horiz-adv-x="565" 
d="M425 412c70 -32 110 -98 110 -194c0 -146 -89 -232 -240 -232c-144 0 -240 97 -240 242v239c0 148 92 247 230 247c116 0 200 -65 200 -176c0 -45 -19 -83 -60 -126zM285 574c-48 0 -80 -43 -80 -107v-50l29 6c18 4 36 6 53 8c42 34 52 60 52 87c0 35 -20 56 -54 56z
M295 130c57 0 90 33 90 88c0 68 -60 90 -151 71l-29 -6v-55c0 -59 36 -98 90 -98z" />
    <glyph glyph-name="uni0433.loclBGR" horiz-adv-x="468" 
d="M323 179l130 -74c-39 -81 -115 -119 -215 -119c-108 0 -208 49 -208 164c0 185 241 147 241 204c0 18 -16 28 -42 28c-33 0 -53 -18 -67 -44l-128 69c42 71 114 107 195 107c104 0 196 -55 196 -164c0 -178 -241 -136 -241 -196c0 -20 18 -34 54 -34c44 0 72 21 85 59z
" />
    <glyph glyph-name="uni0434.loclBGR" horiz-adv-x="623" 
d="M422 500h146v-475c0 -168 -131 -239 -264 -239c-104 0 -191 39 -237 121l128 74c19 -35 48 -63 114 -63c70 0 113 36 113 107v46c-33 -41 -81 -65 -146 -65c-142 0 -246 116 -246 254s104 254 246 254c65 0 113 -24 146 -65v51zM301 144c71 0 121 47 121 116
s-50 116 -121 116s-121 -47 -121 -116s50 -116 121 -116z" />
    <glyph glyph-name="uni0436.loclBGR" horiz-adv-x="770" 
d="M760 0h-166l-136 217v-217h-146v217l-136 -217h-166l166 250l-156 250h166l126 -214v414h146v-414l126 214h166l-156 -250z" />
    <glyph glyph-name="uni0438.loclBGR" horiz-adv-x="583" 
d="M378 500h150v-500h-150v47c-27 -37 -77 -61 -143 -61c-101 0 -187 72 -187 207v307h150v-285c0 -62 39 -91 87 -91c55 0 93 32 93 103v273z" />
    <glyph glyph-name="uni0439.loclBGR" horiz-adv-x="583" 
d="M438 689v-130h-300v130h300zM378 500h150v-500h-150v47c-27 -37 -77 -61 -143 -61c-101 0 -187 72 -187 207v307h150v-285c0 -62 39 -91 87 -91c55 0 93 32 93 103v273z" />
    <glyph glyph-name="uni043A.loclBGR" horiz-adv-x="535" 
d="M535 0h-170l-160 221v-221h-150v700h150v-419l150 219h175l-182 -250z" />
    <glyph glyph-name="uni043B.loclBGR" horiz-adv-x="540" 
d="M540 0h-166l-104 317l-104 -317h-166l185 500h170z" />
    <glyph glyph-name="uni043F.loclBGR" horiz-adv-x="583" 
d="M348 514c101 0 187 -72 187 -207v-307h-150v285c0 62 -39 91 -87 91c-55 0 -93 -32 -93 -103v-273h-150v500h150v-47c27 37 77 61 143 61z" />
    <glyph glyph-name="uni0442.loclBGR" horiz-adv-x="853" 
d="M615 514c115 0 190 -82 190 -207v-307h-150v294c0 50 -24 82 -72 82c-50 0 -78 -35 -78 -94v-282h-150v294c0 50 -24 82 -72 82c-50 0 -78 -35 -78 -94v-282h-150v500h150v-46c23 34 67 60 134 60c59 0 103 -24 131 -66c28 40 74 66 145 66z" />
    <glyph glyph-name="uni0446.loclBGR" horiz-adv-x="623" 
d="M558 140h45v-274h-146v147c-23 10 -42 26 -55 46c-30 -44 -85 -73 -167 -73c-101 0 -187 72 -187 207v307h150v-285c0 -62 39 -91 87 -91c55 0 93 32 93 103v273h150v-330c0 -19 11 -30 30 -30z" />
    <glyph glyph-name="uni0448.loclBGR" horiz-adv-x="853" 
d="M648 500h150v-500h-150v46c-23 -34 -67 -60 -134 -60c-59 0 -103 24 -131 66c-28 -40 -74 -66 -145 -66c-115 0 -190 82 -190 207v307h150v-294c0 -50 24 -82 72 -82c50 0 78 35 78 94v282h150v-294c0 -50 24 -82 72 -82c50 0 78 35 78 94v282z" />
    <glyph glyph-name="uni0449.loclBGR" horiz-adv-x="893" 
d="M828 140h45v-274h-146v147c-22 10 -39 24 -52 42c-28 -38 -73 -69 -151 -69c-65 0 -111 24 -140 67c-29 -41 -75 -67 -146 -67c-115 0 -190 82 -190 207v307h150v-294c0 -50 24 -82 72 -82c50 0 78 35 78 94v282h150v-294c0 -50 24 -82 72 -82c50 0 78 35 78 94v282h150
v-330c0 -19 11 -30 30 -30z" />
    <glyph glyph-name="uni044C.loclBGR" horiz-adv-x="498" 
d="M273 368c135 0 205 -70 205 -186c0 -112 -86 -196 -215 -196c-135 0 -215 79 -215 206v308h146v-132h79zM263 126c41 0 69 30 69 58c0 30 -19 54 -59 54h-79v-46c0 -39 26 -66 69 -66z" />
    <glyph glyph-name="uni044A.loclBGR" horiz-adv-x="585" 
d="M360 368c135 0 205 -70 205 -186c0 -112 -86 -196 -215 -196c-135 0 -215 79 -215 206v168h-135v140h281v-132h79zM350 126c41 0 69 30 69 58c0 30 -19 54 -59 54h-79v-46c0 -39 26 -66 69 -66z" />
    <glyph glyph-name="uni044E.loclBGR" horiz-adv-x="815" 
d="M520 514c147 0 265 -115 265 -264s-118 -264 -265 -264c-123 0 -223 80 -252 194h-63v-180h-150v700h150v-380h63c29 114 129 194 252 194zM520 132c65 0 115 47 115 118s-50 118 -115 118s-115 -47 -115 -118s50 -118 115 -118z" />
    <glyph glyph-name="uni0394" unicode="&#x394;" horiz-adv-x="660" 
d="M432 700l228 -700h-660l228 700h204zM219 150h222l-111 375z" />
    <glyph glyph-name="uni03A9" unicode="&#x3a9;" horiz-adv-x="768" 
d="M748 370c0 -86 -36 -161 -94 -216h80v-154h-278v154c78 27 132 99 132 196c0 125 -90 208 -204 208s-204 -83 -204 -208c0 -97 54 -169 132 -196v-154h-278v154h80c-59 55 -94 130 -94 216c0 196 163 344 364 344s364 -148 364 -344z" />
    <glyph glyph-name="pi" unicode="&#x3c0;" horiz-adv-x="670" 
d="M650 500v-140h-78v-360h-150v360h-170v-360h-150v360h-82v140h630z" />
    <glyph glyph-name="zero" unicode="0" horiz-adv-x="630" 
d="M315 -14c-181 0 -285 148 -285 364s104 364 285 364s285 -148 285 -364s-104 -364 -285 -364zM315 142c84 0 125 73 125 208s-41 208 -125 208s-125 -73 -125 -208s41 -208 125 -208z" />
    <glyph glyph-name="one" unicode="1" horiz-adv-x="403" 
d="M193 700h140v-700h-160v531l-124 -34l-39 137z" />
    <glyph glyph-name="two" unicode="2" horiz-adv-x="533" 
d="M22 0v116l235 244c41 42 71 83 71 124c0 44 -28 74 -75 74c-49 0 -84 -32 -103 -76l-135 79c45 104 139 153 236 153c125 0 237 -82 237 -223c0 -84 -45 -156 -109 -220l-116 -117h235v-154h-476z" />
    <glyph glyph-name="three" unicode="3" horiz-adv-x="550" 
d="M371 416c86 -30 149 -99 149 -196c0 -154 -120 -234 -255 -234c-106 0 -202 47 -245 150l138 80c16 -46 46 -74 107 -74c66 0 95 35 95 78s-29 78 -95 78h-33l-61 91l127 161h-256v150h450v-130z" />
    <glyph glyph-name="four" unicode="4" 
d="M570 260v-148h-70v-112h-162v112h-318v148l223 440h172l-223 -440h146v150h162v-150h70z" />
    <glyph glyph-name="five" unicode="5" horiz-adv-x="550" 
d="M285 454c130 0 240 -80 240 -234s-120 -234 -255 -234c-111 0 -207 47 -250 150l138 80c16 -46 46 -74 112 -74s95 35 95 78s-29 78 -90 78h-219l29 402h405v-150h-255l-7 -96h57z" />
    <glyph glyph-name="six" unicode="6" horiz-adv-x="560" 
d="M307 479c139 -11 233 -110 233 -246c0 -145 -106 -247 -260 -247c-155 0 -260 102 -260 247c0 54 15 103 41 142l214 325h184zM280 136c53 0 100 36 100 97s-47 97 -100 97c-54 0 -100 -35 -100 -97s46 -97 100 -97z" />
    <glyph glyph-name="seven" unicode="7" horiz-adv-x="490" 
d="M10 700h460v-134l-228 -566h-170l220 546h-282v154z" />
    <glyph glyph-name="eight" unicode="8" horiz-adv-x="574" 
d="M453 365c59 -38 91 -99 91 -168c0 -128 -92 -211 -257 -211s-257 83 -257 211c0 69 32 130 91 168c-41 32 -67 78 -67 141c0 136 104 208 233 208s233 -72 233 -208c0 -63 -26 -109 -67 -141zM287 564c-45 0 -73 -29 -73 -68s28 -68 73 -68s73 29 73 68s-28 68 -73 68z
M287 136c56 0 97 31 97 84s-41 84 -97 84s-97 -31 -97 -84s41 -84 97 -84z" />
    <glyph glyph-name="nine" unicode="9" horiz-adv-x="560" 
d="M540 467c0 -54 -15 -103 -41 -142l-214 -325h-184l152 221c-139 11 -233 110 -233 246c0 145 106 247 260 247c155 0 260 -102 260 -247zM180 467c0 -61 47 -97 100 -97c54 0 100 35 100 97s-46 97 -100 97c-53 0 -100 -36 -100 -97z" />
    <glyph glyph-name="zero.sinf" horiz-adv-x="408" 
d="M204 -174c-111 0 -184 81 -184 214s73 214 184 214s184 -81 184 -214s-73 -214 -184 -214zM204 -52c37 0 58 33 58 92s-21 92 -58 92s-58 -33 -58 -92s21 -92 58 -92z" />
    <glyph glyph-name="one.sinf" horiz-adv-x="274" 
d="M122 240h107v-400h-122v279l-79 -22l-28 99z" />
    <glyph glyph-name="two.sinf" horiz-adv-x="352" 
d="M21 -160v77l145 147c21 21 32 37 32 53c0 17 -12 27 -31 27c-25 0 -41 -18 -53 -47l-99 56c25 59 77 101 154 101c85 0 152 -51 152 -127c0 -53 -32 -92 -70 -130l-47 -47h123v-110h-306z" />
    <glyph glyph-name="three.sinf" horiz-adv-x="344" 
d="M238 76c55 -18 86 -58 86 -114c0 -90 -60 -136 -158 -136c-86 0 -136 35 -161 90l103 60c12 -35 31 -45 58 -45c23 0 35 11 35 31s-17 30 -40 30h-24l-42 62l62 76h-133v110h281v-85z" />
    <glyph glyph-name="four.sinf" horiz-adv-x="358" 
d="M343 11v-110h-37v-61h-116v61h-180v110l122 229h130l-117 -229h45v61h116v-61h37z" />
    <glyph glyph-name="five.sinf" horiz-adv-x="339" 
d="M176 89c83 0 143 -37 143 -132c0 -90 -66 -131 -148 -131c-86 0 -136 35 -161 90l100 57c11 -32 30 -45 57 -45c29 0 41 14 41 32c0 19 -12 32 -41 32h-130l17 248h244v-110h-142l-3 -41h23z" />
    <glyph glyph-name="six.sinf" horiz-adv-x="342" 
d="M196 111c80 -10 131 -65 131 -142c0 -84 -61 -143 -156 -143s-156 59 -156 143c0 28 7 53 19 74l123 197h122zM171 -74c26 0 44 14 44 43s-18 42 -44 42s-44 -13 -44 -42s18 -43 44 -43z" />
    <glyph glyph-name="seven.sinf" horiz-adv-x="295" 
d="M0 240h280v-93l-119 -307h-126l113 290h-148v110z" />
    <glyph glyph-name="eight.sinf" horiz-adv-x="354" 
d="M278 50c37 -23 56 -59 56 -100c0 -75 -56 -124 -157 -124s-157 49 -157 124c0 41 19 77 56 100c-26 19 -42 47 -42 82c0 76 61 122 143 122s143 -46 143 -122c0 -35 -16 -63 -42 -82zM177 153c-25 0 -41 -11 -41 -33c0 -21 16 -32 41 -32c22 0 41 11 41 32
c0 22 -19 33 -41 33zM177 -72c27 0 43 15 43 39c0 23 -16 38 -43 38s-43 -15 -43 -38c0 -24 16 -39 43 -39z" />
    <glyph glyph-name="nine.sinf" horiz-adv-x="342" 
d="M327 111c0 -28 -7 -53 -19 -74l-123 -197h-122l83 129c-80 10 -131 65 -131 142c0 84 61 143 156 143s156 -59 156 -143zM127 111c0 -29 18 -42 44 -42s44 13 44 42s-18 43 -44 43s-44 -14 -44 -43z" />
    <glyph glyph-name="zero.tf" 
d="M290 -14c-181 0 -285 148 -285 364s104 364 285 364s285 -148 285 -364s-104 -364 -285 -364zM290 142c84 0 125 73 125 208s-41 208 -125 208s-125 -73 -125 -208s41 -208 125 -208z" />
    <glyph glyph-name="one.tf" 
d="M380 154h185v-154h-540v154h195v377l-124 -34l-39 137l183 66h140v-546z" />
    <glyph glyph-name="two.tf" 
d="M30 0v116l256 235c47 43 84 83 84 128c0 35 -23 79 -89 79c-53 0 -86 -29 -116 -81l-135 79c52 106 146 158 253 158c148 0 247 -98 247 -225c0 -91 -51 -158 -135 -235l-109 -100h254v-154h-510z" />
    <glyph glyph-name="three.tf" 
d="M399 427c91 -30 156 -98 156 -202c0 -154 -115 -239 -260 -239c-131 0 -227 52 -275 165l138 80c21 -56 61 -89 127 -89c76 0 110 35 110 83s-34 83 -110 83h-31l-63 93l129 149h-278v150h480v-130z" />
    <glyph glyph-name="four.tf" 
d="M565 260v-148h-70v-112h-162v112h-328v148l223 440h172l-223 -440h156v150h162v-150h70z" />
    <glyph glyph-name="five.tf" 
d="M300 454c145 0 255 -80 255 -234s-120 -234 -260 -234c-131 0 -227 52 -275 165l138 80c21 -56 61 -89 132 -89c76 0 105 35 105 78s-29 78 -105 78h-230l29 402h431v-150h-285l-7 -96h72z" />
    <glyph glyph-name="six.tf" 
d="M316 489c154 -10 249 -109 249 -251c0 -150 -106 -252 -275 -252c-170 0 -275 102 -275 252c0 59 16 111 47 152l223 310h184zM290 136c68 0 115 36 115 102s-47 102 -115 102c-69 0 -115 -35 -115 -102s46 -102 115 -102z" />
    <glyph glyph-name="seven.tf" 
d="M20 700h530v-134l-258 -566h-170l247 546h-349v154z" />
    <glyph glyph-name="eight.tf" 
d="M468 365c64 -39 99 -99 99 -168c0 -128 -102 -211 -277 -211s-277 83 -277 211c0 69 35 129 99 168c-46 31 -75 78 -75 141c0 136 114 208 253 208s253 -72 253 -208c0 -63 -29 -110 -75 -141zM290 564c-60 0 -93 -29 -93 -68s33 -68 93 -68s93 29 93 68s-33 68 -93 68z
M290 136c76 0 117 31 117 84s-41 84 -117 84s-117 -31 -117 -84s41 -84 117 -84z" />
    <glyph glyph-name="nine.tf" 
d="M565 462c0 -59 -16 -111 -47 -152l-223 -310h-184l153 211c-154 10 -249 109 -249 251c0 150 106 252 275 252c170 0 275 -102 275 -252zM175 462c0 -66 47 -102 115 -102c69 0 115 35 115 102s-46 102 -115 102c-68 0 -115 -36 -115 -102z" />
    <glyph glyph-name="zero.dnom" horiz-adv-x="408" 
d="M204 -14c-111 0 -184 81 -184 214s73 214 184 214s184 -81 184 -214s-73 -214 -184 -214zM204 108c37 0 58 33 58 92s-21 92 -58 92s-58 -33 -58 -92s21 -92 58 -92z" />
    <glyph glyph-name="one.dnom" horiz-adv-x="274" 
d="M122 400h107v-400h-122v279l-79 -22l-28 99z" />
    <glyph glyph-name="two.dnom" horiz-adv-x="361" 
d="M21 0v77l145 147c21 21 32 37 32 53c0 17 -12 27 -31 27c-25 0 -41 -18 -53 -47l-99 56c25 59 77 101 154 101c85 0 152 -51 152 -127c0 -53 -32 -92 -70 -130l-47 -47h123v-110h-306z" />
    <glyph glyph-name="three.dnom" horiz-adv-x="346" 
d="M238 236c55 -18 86 -58 86 -114c0 -90 -60 -136 -158 -136c-86 0 -136 35 -161 90l103 60c12 -35 31 -45 58 -45c23 0 35 11 35 31s-17 30 -40 30h-24l-42 62l62 76h-133v110h281v-85z" />
    <glyph glyph-name="four.dnom" horiz-adv-x="358" 
d="M343 171v-110h-37v-61h-116v61h-180v110l122 229h130l-117 -229h45v61h116v-61h37z" />
    <glyph glyph-name="five.dnom" horiz-adv-x="332" 
d="M176 249c83 0 143 -37 143 -132c0 -90 -66 -131 -148 -131c-86 0 -136 35 -161 90l100 57c11 -32 30 -45 57 -45c29 0 41 14 41 32c0 19 -12 32 -41 32h-130l17 248h244v-110h-142l-3 -41h23z" />
    <glyph glyph-name="six.dnom" horiz-adv-x="342" 
d="M196 271c80 -10 131 -65 131 -142c0 -84 -61 -143 -156 -143s-156 59 -156 143c0 28 7 53 19 74l123 197h122zM171 86c26 0 44 14 44 43s-18 42 -44 42s-44 -13 -44 -42s18 -43 44 -43z" />
    <glyph glyph-name="seven.dnom" horiz-adv-x="295" 
d="M0 400h280v-93l-119 -307h-126l113 290h-148v110z" />
    <glyph glyph-name="eight.dnom" horiz-adv-x="354" 
d="M278 210c37 -23 56 -59 56 -100c0 -75 -56 -124 -157 -124s-157 49 -157 124c0 41 19 77 56 100c-26 19 -42 47 -42 82c0 76 61 122 143 122s143 -46 143 -122c0 -35 -16 -63 -42 -82zM177 313c-25 0 -41 -11 -41 -33c0 -21 16 -32 41 -32c22 0 41 11 41 32
c0 22 -19 33 -41 33zM177 88c27 0 43 15 43 39c0 23 -16 38 -43 38s-43 -15 -43 -38c0 -24 16 -39 43 -39z" />
    <glyph glyph-name="nine.dnom" horiz-adv-x="342" 
d="M327 271c0 -28 -7 -53 -19 -74l-123 -197h-122l83 129c-80 10 -131 65 -131 142c0 84 61 143 156 143s156 -59 156 -143zM127 271c0 -29 18 -42 44 -42s44 13 44 42s-18 43 -44 43s-44 -14 -44 -43z" />
    <glyph glyph-name="zero.numr" horiz-adv-x="408" 
d="M204 286c-111 0 -184 81 -184 214s73 214 184 214s184 -81 184 -214s-73 -214 -184 -214zM204 408c37 0 58 33 58 92s-21 92 -58 92s-58 -33 -58 -92s21 -92 58 -92z" />
    <glyph glyph-name="one.numr" horiz-adv-x="274" 
d="M122 700h107v-400h-122v279l-79 -22l-28 99z" />
    <glyph glyph-name="two.numr" horiz-adv-x="361" 
d="M21 300v77l145 147c21 21 32 37 32 53c0 17 -12 27 -31 27c-25 0 -41 -18 -53 -47l-99 56c25 59 77 101 154 101c85 0 152 -51 152 -127c0 -53 -32 -92 -70 -130l-47 -47h123v-110h-306z" />
    <glyph glyph-name="three.numr" horiz-adv-x="346" 
d="M238 536c55 -18 86 -58 86 -114c0 -90 -60 -136 -158 -136c-86 0 -136 35 -161 90l103 60c12 -35 31 -45 58 -45c23 0 35 11 35 31s-17 30 -40 30h-24l-42 62l62 76h-133v110h281v-85z" />
    <glyph glyph-name="four.numr" horiz-adv-x="358" 
d="M343 471v-110h-37v-61h-116v61h-180v110l122 229h130l-117 -229h45v61h116v-61h37z" />
    <glyph glyph-name="five.numr" horiz-adv-x="332" 
d="M176 549c83 0 143 -37 143 -132c0 -90 -66 -131 -148 -131c-86 0 -136 35 -161 90l100 57c11 -32 30 -45 57 -45c29 0 41 14 41 32c0 19 -12 32 -41 32h-130l17 248h244v-110h-142l-3 -41h23z" />
    <glyph glyph-name="six.numr" horiz-adv-x="342" 
d="M196 571c80 -10 131 -65 131 -142c0 -84 -61 -143 -156 -143s-156 59 -156 143c0 28 7 53 19 74l123 197h122zM171 386c26 0 44 14 44 43s-18 42 -44 42s-44 -13 -44 -42s18 -43 44 -43z" />
    <glyph glyph-name="seven.numr" horiz-adv-x="295" 
d="M0 700h280v-93l-119 -307h-126l113 290h-148v110z" />
    <glyph glyph-name="eight.numr" horiz-adv-x="354" 
d="M278 510c37 -23 56 -59 56 -100c0 -75 -56 -124 -157 -124s-157 49 -157 124c0 41 19 77 56 100c-26 19 -42 47 -42 82c0 76 61 122 143 122s143 -46 143 -122c0 -35 -16 -63 -42 -82zM177 613c-25 0 -41 -11 -41 -33c0 -21 16 -32 41 -32c22 0 41 11 41 32
c0 22 -19 33 -41 33zM177 388c27 0 43 15 43 39c0 23 -16 38 -43 38s-43 -15 -43 -38c0 -24 16 -39 43 -39z" />
    <glyph glyph-name="nine.numr" horiz-adv-x="342" 
d="M327 571c0 -28 -7 -53 -19 -74l-123 -197h-122l83 129c-80 10 -131 65 -131 142c0 84 61 143 156 143s156 -59 156 -143zM127 571c0 -29 18 -42 44 -42s44 13 44 42s-18 43 -44 43s-44 -14 -44 -43z" />
    <glyph glyph-name="zero.sups" horiz-adv-x="408" 
d="M204 446c-111 0 -184 81 -184 214s73 214 184 214s184 -81 184 -214s-73 -214 -184 -214zM204 568c37 0 58 33 58 92s-21 92 -58 92s-58 -33 -58 -92s21 -92 58 -92z" />
    <glyph glyph-name="one.sups" horiz-adv-x="274" 
d="M122 860h107v-400h-122v279l-79 -22l-28 99z" />
    <glyph glyph-name="two.sups" horiz-adv-x="361" 
d="M21 460v77l145 147c21 21 32 37 32 53c0 17 -12 27 -31 27c-25 0 -41 -18 -53 -47l-99 56c25 59 77 101 154 101c85 0 152 -51 152 -127c0 -53 -32 -92 -70 -130l-47 -47h123v-110h-306z" />
    <glyph glyph-name="three.sups" horiz-adv-x="346" 
d="M238 696c55 -18 86 -58 86 -114c0 -90 -60 -136 -158 -136c-86 0 -136 35 -161 90l103 60c12 -35 31 -45 58 -45c23 0 35 11 35 31s-17 30 -40 30h-24l-42 62l62 76h-133v110h281v-85z" />
    <glyph glyph-name="four.sups" horiz-adv-x="358" 
d="M343 631v-110h-37v-61h-116v61h-180v110l122 229h130l-117 -229h45v61h116v-61h37z" />
    <glyph glyph-name="five.sups" horiz-adv-x="332" 
d="M176 709c83 0 143 -37 143 -132c0 -90 -66 -131 -148 -131c-86 0 -136 35 -161 90l100 57c11 -32 30 -45 57 -45c29 0 41 14 41 32c0 19 -12 32 -41 32h-130l17 248h244v-110h-142l-3 -41h23z" />
    <glyph glyph-name="six.sups" horiz-adv-x="342" 
d="M196 731c80 -10 131 -65 131 -142c0 -84 -61 -143 -156 -143s-156 59 -156 143c0 28 7 53 19 74l123 197h122zM171 546c26 0 44 14 44 43s-18 42 -44 42s-44 -13 -44 -42s18 -43 44 -43z" />
    <glyph glyph-name="seven.sups" horiz-adv-x="295" 
d="M0 860h280v-93l-119 -307h-126l113 290h-148v110z" />
    <glyph glyph-name="eight.sups" horiz-adv-x="354" 
d="M278 670c37 -23 56 -59 56 -100c0 -75 -56 -124 -157 -124s-157 49 -157 124c0 41 19 77 56 100c-26 19 -42 47 -42 82c0 76 61 122 143 122s143 -46 143 -122c0 -35 -16 -63 -42 -82zM177 773c-25 0 -41 -11 -41 -33c0 -21 16 -32 41 -32c22 0 41 11 41 32
c0 22 -19 33 -41 33zM177 548c27 0 43 15 43 39c0 23 -16 38 -43 38s-43 -15 -43 -38c0 -24 16 -39 43 -39z" />
    <glyph glyph-name="nine.sups" horiz-adv-x="342" 
d="M327 731c0 -28 -7 -53 -19 -74l-123 -197h-122l83 129c-80 10 -131 65 -131 142c0 84 61 143 156 143s156 -59 156 -143zM127 731c0 -29 18 -42 44 -42s44 13 44 42s-18 43 -44 43s-44 -14 -44 -43z" />
    <glyph glyph-name="fraction" unicode="&#x2044;" horiz-adv-x="180" 
d="M-60 0h-100l400 700h100z" />
    <glyph glyph-name="onehalf" unicode="&#xbd;" horiz-adv-x="815" 
d="M229 300h-122v279l-79 -22l-28 99l122 44h107v-400zM514 700h100l-400 -700h-100zM658 110h123v-110h-306v77l145 147c21 21 32 37 32 53c0 17 -12 27 -31 27c-25 0 -41 -18 -53 -47l-99 56c25 59 77 101 154 101c85 0 152 -51 152 -127c0 -53 -32 -92 -70 -130z" />
    <glyph glyph-name="onequarter" unicode="&#xbc;" horiz-adv-x="812" 
d="M229 300h-122v279l-79 -22l-28 99l122 44h107v-400zM514 700h100l-400 -700h-100zM797 171v-110h-37v-61h-116v61h-180v110l122 229h130l-117 -229h45v61h116v-61h37z" />
    <glyph glyph-name="threequarters" unicode="&#xbe;" horiz-adv-x="884" 
d="M324 422c0 -90 -60 -136 -158 -136c-86 0 -136 35 -161 90l103 60c12 -35 31 -45 58 -45c23 0 35 11 35 31s-17 30 -40 30h-24l-42 62l62 76h-133v110h281v-85l-67 -79c55 -18 86 -58 86 -114zM586 700h100l-400 -700h-100zM869 171v-110h-37v-61h-116v61h-180v110
l122 229h130l-117 -229h45v61h116v-61h37z" />
    <glyph glyph-name="oneeighth" unicode="&#x215b;" horiz-adv-x="808" 
d="M229 300h-122v279l-79 -22l-28 99l122 44h107v-400zM514 700h100l-400 -700h-100zM732 210c37 -23 56 -59 56 -100c0 -75 -56 -124 -157 -124s-157 49 -157 124c0 41 19 77 56 100c-26 19 -42 47 -42 82c0 76 61 122 143 122s143 -46 143 -122c0 -35 -16 -63 -42 -82z
M631 313c-25 0 -41 -11 -41 -33c0 -21 16 -32 41 -32c22 0 41 11 41 32c0 22 -19 33 -41 33zM631 88c27 0 43 15 43 39c0 23 -16 38 -43 38s-43 -15 -43 -38c0 -24 16 -39 43 -39z" />
    <glyph glyph-name="threeeighths" unicode="&#x215c;" horiz-adv-x="880" 
d="M324 422c0 -90 -60 -136 -158 -136c-86 0 -136 35 -161 90l103 60c12 -35 31 -45 58 -45c23 0 35 11 35 31s-17 30 -40 30h-24l-42 62l62 76h-133v110h281v-85l-67 -79c55 -18 86 -58 86 -114zM586 700h100l-400 -700h-100zM804 210c37 -23 56 -59 56 -100
c0 -75 -56 -124 -157 -124s-157 49 -157 124c0 41 19 77 56 100c-26 19 -42 47 -42 82c0 76 61 122 143 122s143 -46 143 -122c0 -35 -16 -63 -42 -82zM703 313c-25 0 -41 -11 -41 -33c0 -21 16 -32 41 -32c22 0 41 11 41 32c0 22 -19 33 -41 33zM703 88c27 0 43 15 43 39
c0 23 -16 38 -43 38s-43 -15 -43 -38c0 -24 16 -39 43 -39z" />
    <glyph glyph-name="fiveeighths" unicode="&#x215d;" horiz-adv-x="866" 
d="M319 417c0 -90 -66 -131 -148 -131c-86 0 -136 35 -161 90l100 57c11 -32 30 -45 57 -45c29 0 41 14 41 32c0 19 -12 32 -41 32h-130l17 248h244v-110h-142l-3 -41h23c83 0 143 -37 143 -132zM572 700h100l-400 -700h-100zM790 210c37 -23 56 -59 56 -100
c0 -75 -56 -124 -157 -124s-157 49 -157 124c0 41 19 77 56 100c-26 19 -42 47 -42 82c0 76 61 122 143 122s143 -46 143 -122c0 -35 -16 -63 -42 -82zM689 313c-25 0 -41 -11 -41 -33c0 -21 16 -32 41 -32c22 0 41 11 41 32c0 22 -19 33 -41 33zM689 88c27 0 43 15 43 39
c0 23 -16 38 -43 38s-43 -15 -43 -38c0 -24 16 -39 43 -39z" />
    <glyph glyph-name="seveneighths" unicode="&#x215e;" horiz-adv-x="829" 
d="M161 300h-126l113 290h-148v110h280v-93zM535 700h100l-400 -700h-100zM753 210c37 -23 56 -59 56 -100c0 -75 -56 -124 -157 -124s-157 49 -157 124c0 41 19 77 56 100c-26 19 -42 47 -42 82c0 76 61 122 143 122s143 -46 143 -122c0 -35 -16 -63 -42 -82zM652 313
c-25 0 -41 -11 -41 -33c0 -21 16 -32 41 -32c22 0 41 11 41 32c0 22 -19 33 -41 33zM652 88c27 0 43 15 43 39c0 23 -16 38 -43 38s-43 -15 -43 -38c0 -24 16 -39 43 -39z" />
    <glyph glyph-name="asterisk" unicode="*" horiz-adv-x="400" 
d="M350 608v-88l-90 9l55 -69l-73 -46l-42 85l-42 -85l-73 46l55 69l-90 -9v88l90 -9l-55 69l73 46l42 -85l42 85l73 -46l-55 -69z" />
    <glyph glyph-name="backslash" unicode="\" horiz-adv-x="520" 
d="M430 -100l-400 900h60l400 -900h-60z" />
    <glyph glyph-name="periodcentered" unicode="&#xb7;" horiz-adv-x="280" 
d="M140 251c-52 0 -95 43 -95 95s43 95 95 95s95 -43 95 -95s-43 -95 -95 -95z" />
    <glyph glyph-name="bullet" unicode="&#x2022;" horiz-adv-x="380" 
d="M192 200c-84 0 -152 68 -152 152c0 82 68 148 152 148c82 0 148 -66 148 -148c0 -84 -66 -152 -148 -152z" />
    <glyph glyph-name="colon" unicode=":" horiz-adv-x="280" 
d="M140 326c-52 0 -95 43 -95 95s43 95 95 95s95 -43 95 -95s-43 -95 -95 -95zM140 -14c-52 0 -95 43 -95 95s43 95 95 95s95 -43 95 -95s-43 -95 -95 -95z" />
    <glyph glyph-name="comma" unicode="," horiz-adv-x="290" 
d="M245 155l-80 -295h-120l40 295h160z" />
    <glyph glyph-name="ellipsis" unicode="&#x2026;" horiz-adv-x="760" 
d="M140 -14c-52 0 -95 43 -95 95s43 95 95 95s95 -43 95 -95s-43 -95 -95 -95zM380 -14c-52 0 -95 43 -95 95s43 95 95 95s95 -43 95 -95s-43 -95 -95 -95zM620 -14c-52 0 -95 43 -95 95s43 95 95 95s95 -43 95 -95s-43 -95 -95 -95z" />
    <glyph glyph-name="exclam" unicode="!" horiz-adv-x="280" 
d="M80 250l-30 250v200h180v-200l-30 -250h-120zM140 -14c-52 0 -95 43 -95 95s43 95 95 95s95 -43 95 -95s-43 -95 -95 -95z" />
    <glyph glyph-name="exclamdown" unicode="&#xa1;" horiz-adv-x="280" 
d="M140 514c52 0 95 -43 95 -95s-43 -95 -95 -95s-95 43 -95 95s43 95 95 95zM80 250h120l30 -250v-200h-180v200z" />
    <glyph glyph-name="numbersign" unicode="#" horiz-adv-x="621" 
d="M583 390h-105l-14 -80h106l-17 -110h-107l-25 -150h-114l25 150h-92l-25 -150h-114l25 150h-106l18 110h106l14 80h-107l18 110h107l25 150h114l-25 -150h92l25 150h114l-25 -150h105zM350 310l14 80h-92l-14 -80h92z" />
    <glyph glyph-name="period" unicode="." horiz-adv-x="280" 
d="M140 -14c-52 0 -95 43 -95 95s43 95 95 95s95 -43 95 -95s-43 -95 -95 -95z" />
    <glyph glyph-name="question" unicode="?" horiz-adv-x="560" 
d="M190 250c0 117 160 162 160 250c0 35 -23 58 -74 58c-55 0 -88 -37 -108 -84l-138 79c44 103 141 161 252 161c114 0 228 -70 228 -200c0 -149 -160 -195 -160 -264h-160zM270 -14c-52 0 -95 43 -95 95s43 95 95 95s95 -43 95 -95s-43 -95 -95 -95z" />
    <glyph glyph-name="questiondown" unicode="&#xbf;" horiz-adv-x="560" 
d="M290 514c52 0 95 -43 95 -95s-43 -95 -95 -95s-95 43 -95 95s43 95 95 95zM370 250c0 -117 -160 -162 -160 -250c0 -35 23 -58 74 -58c55 0 88 37 108 84l138 -79c-44 -103 -141 -161 -252 -161c-114 0 -228 70 -228 200c0 149 160 195 160 264h160z" />
    <glyph glyph-name="quotedbl" unicode="&#x22;" horiz-adv-x="400" 
d="M60 460l-20 240h140l-20 -240h-100zM240 460l-20 240h140l-20 -240h-100z" />
    <glyph glyph-name="quotesingle" unicode="'" horiz-adv-x="220" 
d="M60 460l-20 240h140l-20 -240h-100z" />
    <glyph glyph-name="semicolon" unicode=";" horiz-adv-x="290" 
d="M150 326c-52 0 -95 43 -95 95s43 95 95 95s95 -43 95 -95s-43 -95 -95 -95zM245 155l-80 -295h-120l40 295h160z" />
    <glyph glyph-name="slash" unicode="/" horiz-adv-x="520" 
d="M90 -100h-60l400 900h60z" />
    <glyph glyph-name="underscore" unicode="_" horiz-adv-x="520" 
d="M30 -181v144h460v-144h-460z" />
    <glyph glyph-name="braceleft" unicode="{" horiz-adv-x="360" 
d="M340 -107c-153 -10 -220 64 -220 194v142c0 48 -27 55 -70 50v145c43 -5 70 2 70 50v142c0 130 67 204 220 194v-144c-43 5 -70 -2 -70 -50v-142c0 -55 -17 -97 -53 -122c36 -26 53 -68 53 -123v-142c0 -48 27 -55 70 -50v-144z" />
    <glyph glyph-name="braceright" unicode="}" horiz-adv-x="360" 
d="M20 -107v144c43 -5 70 2 70 50v142c0 55 17 97 53 123c-36 25 -53 67 -53 122v142c0 48 -27 55 -70 50v144c153 10 220 -64 220 -194v-142c0 -48 27 -55 70 -50v-145c-43 5 -70 -2 -70 -50v-142c0 -130 -67 -204 -220 -194z" />
    <glyph glyph-name="bracketleft" unicode="[" horiz-adv-x="320" 
d="M300 656h-100v-612h100v-144h-250v900h250v-144z" />
    <glyph glyph-name="bracketright" unicode="]" horiz-adv-x="320" 
d="M270 800v-900h-250v144h100v612h-100v144h250z" />
    <glyph glyph-name="parenleft" unicode="(" horiz-adv-x="320" 
d="M160 -100c-70 140 -110 290 -110 450s40 310 110 450h150c-70 -140 -110 -290 -110 -450s40 -310 110 -450h-150z" />
    <glyph glyph-name="parenright" unicode=")" horiz-adv-x="320" 
d="M160 -100h-150c70 140 110 290 110 450s-40 310 -110 450h150c70 -140 110 -290 110 -450s-40 -310 -110 -450z" />
    <glyph glyph-name="emdash" unicode="&#x2014;" horiz-adv-x="740" 
d="M60 227v144h620v-144h-620z" />
    <glyph glyph-name="endash" unicode="&#x2013;" horiz-adv-x="640" 
d="M60 227v144h520v-144h-520z" />
    <glyph glyph-name="hyphen" unicode="-" horiz-adv-x="500" 
d="M60 227v144h380v-144h-380z" />
    <glyph glyph-name="guillemotleft" unicode="&#xab;" horiz-adv-x="562" 
d="M302 499l-110 -190l110 -190h-132l-110 190l110 190h132zM502 499l-110 -190l110 -190h-132l-110 190l110 190h132z" />
    <glyph glyph-name="guillemotright" unicode="&#xbb;" horiz-adv-x="562" 
d="M192 499l110 -190l-110 -190h-132l110 190l-110 190h132zM392 499l110 -190l-110 -190h-132l110 190l-110 190h132z" />
    <glyph glyph-name="guilsinglleft" unicode="&#x2039;" horiz-adv-x="362" 
d="M302 499l-110 -190l110 -190h-132l-110 190l110 190h132z" />
    <glyph glyph-name="guilsinglright" unicode="&#x203a;" horiz-adv-x="362" 
d="M192 499l110 -190l-110 -190h-132l110 190l-110 190h132z" />
    <glyph glyph-name="quotedblbase" unicode="&#x201e;" horiz-adv-x="490" 
d="M245 155l-80 -295h-120l40 295h160zM445 155l-80 -295h-120l40 295h160z" />
    <glyph glyph-name="quotedblleft" unicode="&#x201c;" horiz-adv-x="490" 
d="M45 405l80 295h120l-40 -295h-160zM245 405l80 295h120l-40 -295h-160z" />
    <glyph glyph-name="quotedblright" unicode="&#x201d;" horiz-adv-x="490" 
d="M245 700l-80 -295h-120l40 295h160zM445 700l-80 -295h-120l40 295h160z" />
    <glyph glyph-name="quoteleft" unicode="&#x2018;" horiz-adv-x="290" 
d="M45 405l80 295h120l-40 -295h-160z" />
    <glyph glyph-name="quoteright" unicode="&#x2019;" horiz-adv-x="290" 
d="M245 700l-80 -295h-120l40 295h160z" />
    <glyph glyph-name="quotesinglbase" unicode="&#x201a;" horiz-adv-x="290" 
d="M245 155l-80 -295h-120l40 295h160z" />
    <glyph glyph-name="space" unicode=" " horiz-adv-x="250" 
 />
    <glyph glyph-name="cent" unicode="&#xa2;" horiz-adv-x="531" 
d="M293 234c44 0 81 21 97 56l131 -75c-43 -78 -128 -129 -226 -129c-21 0 -40 2 -59 6l-30 -92h-60l35 110c-91 41 -151 131 -151 240c0 149 113 264 265 264c16 0 32 -1 48 -4l29 90h60l-34 -106c52 -22 96 -60 123 -108l-131 -76c-8 17 -22 31 -38 41l-70 -217h11z
M180 350c0 -43 18 -77 48 -97l68 213h-3c-65 0 -113 -47 -113 -116z" />
    <glyph glyph-name="currency" unicode="&#xa4;" horiz-adv-x="540" 
d="M485 350c0 -50 -17 -95 -45 -131l70 -69l-40 -40l-70 71c-36 -26 -81 -41 -130 -41s-94 15 -129 41l-71 -71l-40 40l70 70c-28 35 -45 80 -45 130s17 95 45 130l-70 70l40 40l71 -71c35 26 80 41 129 41s94 -15 129 -41l71 71l40 -40l-70 -70c28 -35 45 -80 45 -130z
M270 282c41 0 67 27 67 68s-26 68 -67 68s-67 -27 -67 -68s26 -68 67 -68z" />
    <glyph glyph-name="dollar" unicode="$" horiz-adv-x="548" 
d="M528 201c0 -125 -86 -199 -205 -213v-88h-70v87c-113 8 -197 66 -233 162l138 80c21 -48 50 -76 95 -84v138c-4 2 -9 3 -13 5c-87 35 -191 84 -191 218c0 130 98 197 204 207v87h70v-89c86 -11 158 -57 197 -145l-135 -79c-13 35 -33 55 -62 65v-135
c87 -37 205 -70 205 -216zM209 505c0 -19 9 -35 44 -55v105c-29 -7 -44 -26 -44 -50zM323 147c34 9 45 31 45 52c0 25 -15 40 -45 55v-107z" />
    <glyph glyph-name="Euro" unicode="&#x20ac;" horiz-adv-x="616" 
d="M463 220l133 -76c-48 -103 -130 -158 -236 -158c-153 0 -251 105 -277 268h-68v84h60v12v20h-60v84h69c29 158 126 260 276 260c102 0 182 -52 231 -149l-133 -77c-25 49 -53 70 -98 70c-59 0 -97 -36 -114 -104h189v-84h-200v-20v-12h200v-84h-191
c16 -73 55 -112 116 -112c48 0 77 24 103 78z" />
    <glyph glyph-name="florin" unicode="&#x192;" horiz-adv-x="442" 
d="M442 555c-34 18 -90 9 -100 -52l-13 -79h82v-144h-107l-53 -312c-27 -157 -131 -199 -251 -169v150c34 -18 90 -9 100 52l47 279h-76v144h101l19 112c27 157 131 199 251 169v-150z" />
    <glyph glyph-name="uni20BD" unicode="&#x20bd;" horiz-adv-x="605" 
d="M345 230h-105v-41h210v-98h-210v-91h-160v91h-70v98h70v41h-70v140h70v330h265c138 0 245 -107 245 -240s-107 -230 -245 -230zM240 550v-180h105c49 0 85 39 85 90s-36 90 -85 90h-105z" />
    <glyph glyph-name="sterling" unicode="&#xa3;" 
d="M256 154h314v-154h-540v154h66v115h-56v140h56v84c0 154 116 221 225 221c105 0 188 -55 226 -149l-139 -80c-15 48 -37 73 -82 73c-40 0 -70 -25 -70 -72v-77h194v-140h-194v-115z" />
    <glyph glyph-name="yen" unicode="&#xa5;" horiz-adv-x="610" 
d="M630 700l-182 -333h92v-88h-140l-5 -10v-30h145v-88h-145v-151h-160v151h-165v88h165v30l-5 10h-160v88h112l-182 333h182l133 -270l133 270h182z" />
    <glyph glyph-name="cent.tf" 
d="M317 234c44 0 81 21 97 56l131 -75c-43 -78 -128 -129 -226 -129c-21 0 -40 2 -59 6l-30 -92h-60l35 110c-91 41 -151 131 -151 240c0 149 113 264 265 264c16 0 32 -1 48 -4l29 90h60l-34 -106c52 -22 96 -60 123 -108l-131 -76c-8 17 -22 31 -38 41l-70 -217h11z
M204 350c0 -43 18 -77 48 -97l68 213h-3c-65 0 -113 -47 -113 -116z" />
    <glyph glyph-name="dollar.tf" 
d="M560 199c0 -124 -87 -198 -218 -211v-88h-70v87c-131 8 -215 75 -252 172l138 80c22 -51 53 -89 114 -99v138c-5 2 -11 5 -17 7c-97 38 -206 86 -206 223c0 131 103 199 223 205v87h70v-89c92 -13 164 -62 203 -150l-135 -79c-12 32 -32 60 -68 73v-138
c110 -42 218 -78 218 -218zM209 510c0 -23 13 -39 63 -63v115c-48 -5 -63 -28 -63 -52zM342 139c44 7 58 28 58 52c0 26 -15 40 -58 59v-111z" />
    <glyph glyph-name="Euro.tf" 
d="M433 219l132 -76c-38 -92 -117 -157 -220 -157c-144 0 -234 105 -258 268h-67v84h60v12v20h-60v84h68c26 158 115 260 257 260c99 0 177 -61 215 -148l-134 -77c-14 39 -44 69 -81 69c-52 0 -83 -36 -96 -104h150v-84h-159v-20v-12h159v-84h-152c13 -73 44 -112 98 -112
c40 0 72 34 88 77z" />
    <glyph glyph-name="florin.tf" 
d="M560 555c-54 18 -103 6 -119 -52l-22 -79h111v-144h-152l-88 -312c-43 -154 -150 -199 -270 -169v150c54 -18 103 -6 119 52l79 279h-108v144h148l32 112c43 154 150 199 270 169v-150z" />
    <glyph glyph-name="uni20BD.tf" 
d="M315 230h-75v-41h180v-98h-180v-91h-160v91h-70v98h70v41h-70v140h70v330h235c138 0 245 -107 245 -240s-107 -230 -245 -230zM240 550v-180h75c49 0 85 39 85 90s-36 90 -85 90h-75z" />
    <glyph glyph-name="sterling.tf" 
d="M256 154h314v-154h-540v154h66v115h-56v140h56v84c0 154 116 221 225 221c105 0 188 -55 226 -149l-139 -80c-15 48 -37 73 -82 73c-40 0 -70 -25 -70 -72v-77h204v-140h-204v-115z" />
    <glyph glyph-name="yen.tf" 
d="M580 700l-179 -333h124v-88h-155v-40h155v-88h-155v-151h-160v151h-155v88h155v40h-155v88h124l-179 333h182l108 -227l108 227h182z" />
    <glyph glyph-name="plus" unicode="+" horiz-adv-x="560" 
d="M510 420v-140h-160v-160h-140v160h-160v140h160v160h140v-160h160z" />
    <glyph glyph-name="minus" unicode="&#x2212;" horiz-adv-x="560" 
d="M50 280v140h460v-140h-460z" />
    <glyph glyph-name="multiply" unicode="&#xd7;" horiz-adv-x="525" 
d="M475 464l-114 -114l114 -114l-99 -98l-113 114l-114 -114l-99 98l114 114l-114 114l99 98l114 -113l113 113z" />
    <glyph glyph-name="divide" unicode="&#xf7;" horiz-adv-x="560" 
d="M280 457c-51 0 -90 39 -90 90s39 90 90 90s90 -39 90 -90s-39 -90 -90 -90zM40 280v140h480v-140h-480zM280 63c-51 0 -90 39 -90 90s39 90 90 90s90 -39 90 -90s-39 -90 -90 -90z" />
    <glyph glyph-name="equal" unicode="=" horiz-adv-x="520" 
d="M40 385v140h440v-140h-440zM40 175v140h440v-140h-440z" />
    <glyph glyph-name="notequal" unicode="&#x2260;" horiz-adv-x="520" 
d="M480 385h-159l-32 -70h191v-140h-254l-56 -125h-90l56 125h-96v140h159l32 70h-191v140h254l56 125h90l-56 -125h96v-140z" />
    <glyph glyph-name="greater" unicode="&#x3e;" horiz-adv-x="530" 
d="M40 610l450 -195v-130l-450 -195v154l280 106l-280 106v154z" />
    <glyph glyph-name="less" unicode="&#x3c;" horiz-adv-x="530" 
d="M490 610v-154l-280 -106l280 -106v-154l-450 195v130z" />
    <glyph glyph-name="greaterequal" unicode="&#x2265;" horiz-adv-x="530" 
d="M40 670l450 -170v-130l-450 -170v154l280 81l-280 81v154zM40 40v140h450v-140h-450z" />
    <glyph glyph-name="lessequal" unicode="&#x2264;" horiz-adv-x="530" 
d="M490 670v-154l-280 -81l280 -81v-154l-450 170v130zM40 40v140h450v-140h-450z" />
    <glyph glyph-name="plusminus" unicode="&#xb1;" horiz-adv-x="560" 
d="M350 520h160v-140h-160v-140h-140v140h-160v140h160v140h140v-140zM50 40v140h460v-140h-460z" />
    <glyph glyph-name="approxequal" unicode="&#x2248;" horiz-adv-x="560" 
d="M291 371c-101 42 -124 30 -161 10l-90 28c37 143 119 173 229 130c81 -32 115 -41 131 20l120 -58c-27 -133 -120 -176 -229 -130zM160 141l-120 58c27 133 120 176 229 130c101 -42 124 -30 161 -10l90 -28c-37 -143 -119 -173 -229 -130c-81 32 -115 41 -131 -20z" />
    <glyph glyph-name="asciitilde" unicode="~" horiz-adv-x="600" 
d="M440 452l120 -58c-37 -143 -140 -176 -249 -130c-101 42 -125 51 -151 -20l-120 58c37 143 140 176 249 130c101 -42 124 -50 151 20z" />
    <glyph glyph-name="logicalnot" unicode="&#xac;" horiz-adv-x="560" 
d="M40 420h480v-260h-150v120h-330v140z" />
    <glyph glyph-name="emptyset" unicode="&#x2205;" horiz-adv-x="804" 
d="M661 603c64 -66 103 -155 103 -253c0 -200 -162 -362 -362 -362c-68 0 -131 19 -185 51l-47 -59h-120l93 117c-64 66 -103 155 -103 253c0 200 162 362 362 362c68 0 131 -19 185 -51l47 59h120zM140 350c0 -67 24 -128 64 -174l322 407c-37 20 -79 31 -124 31
c-146 0 -262 -117 -262 -264zM402 86c146 0 262 117 262 264c0 67 -24 128 -64 174l-322 -407c37 -20 79 -31 124 -31z" />
    <glyph glyph-name="infinity" unicode="&#x221e;" horiz-adv-x="810" 
d="M572 530c107 0 188 -70 188 -180s-81 -180 -188 -180c-65 0 -122 38 -167 81c-45 -43 -102 -81 -167 -81c-107 0 -188 70 -188 180s81 180 188 180c65 0 122 -38 167 -81c45 43 102 81 167 81zM246 305c24 0 47 16 70 45c-23 29 -46 45 -70 45c-27 0 -46 -20 -46 -45
s19 -45 46 -45zM564 305c27 0 46 20 46 45s-19 45 -46 45c-24 0 -47 -16 -70 -45c23 -29 46 -45 70 -45z" />
    <glyph glyph-name="integral" unicode="&#x222b;" horiz-adv-x="442" 
d="M0 -204v150c34 -18 90 -9 100 52l91 535c27 157 131 199 251 169v-150c-34 18 -90 9 -100 -52l-91 -535c-27 -157 -131 -199 -251 -169z" />
    <glyph glyph-name="product" unicode="&#x220f;" horiz-adv-x="640" 
d="M60 -200v900h520v-900h-150v756h-220v-756h-150z" />
    <glyph glyph-name="summation" unicode="&#x2211;" horiz-adv-x="570" 
d="M30 -200v125l204 335l-189 314v126h470v-144h-292l178 -296l-192 -316h321v-144h-500z" />
    <glyph glyph-name="radical" unicode="&#x221a;" horiz-adv-x="686" 
d="M263 0l-117 186h-106v144h192l91 -157l211 627h152l-279 -800h-144z" />
    <glyph glyph-name="uni00B5" unicode="&#xb5;" horiz-adv-x="620" 
d="M565 140h35v-140h-65c-49 0 -87 15 -113 43c-27 -35 -76 -57 -140 -57c-27 0 -53 5 -77 16v-202h-150v700h150v-285c0 -62 39 -91 87 -91c55 0 93 32 93 103v273h150v-330c0 -19 11 -30 30 -30z" />
    <glyph glyph-name="partialdiff" unicode="&#x2202;" horiz-adv-x="586" 
d="M242 714c157 0 304 -143 304 -364c0 -244 -129 -364 -285 -364c-142 0 -221 96 -221 214c0 135 85 235 226 235c48 0 91 -13 126 -35c-14 110 -72 172 -171 174c-36 1 -73 -10 -110 -31v135c39 25 82 36 131 36zM267 126c73 0 112 60 125 149c-31 21 -66 30 -103 30
c-54 0 -99 -36 -99 -100c0 -52 35 -79 77 -79z" />
    <glyph glyph-name="percent" unicode="%" horiz-adv-x="784" 
d="M214 374c-100 0 -174 76 -174 170s74 170 174 170c99 0 173 -73 173 -170c0 -94 -74 -170 -173 -170zM123 110l452 500l66 -38l-452 -501zM213 489c32 0 54 26 54 55c0 31 -22 55 -54 55c-31 0 -53 -24 -53 -55s22 -55 53 -55zM571 -12c-100 0 -174 76 -174 170
s74 170 174 170c99 0 173 -76 173 -170s-74 -170 -173 -170zM570 103c32 0 54 26 54 55c0 31 -22 55 -54 55c-31 0 -53 -24 -53 -55s22 -55 53 -55z" />
    <glyph glyph-name="perthousand" unicode="&#x2030;" horiz-adv-x="1164" 
d="M214 374c-100 0 -174 76 -174 170s74 170 174 170c99 0 173 -73 173 -170c0 -94 -74 -170 -173 -170zM123 110l452 500l66 -38l-452 -501zM213 489c32 0 54 26 54 55c0 31 -22 55 -54 55c-31 0 -53 -24 -53 -55s22 -55 53 -55zM571 -12c-100 0 -174 76 -174 170
s74 170 174 170c99 0 173 -76 173 -170s-74 -170 -173 -170zM951 -12c-100 0 -174 76 -174 170s74 170 174 170c99 0 173 -76 173 -170s-74 -170 -173 -170zM570 103c32 0 54 26 54 55c0 31 -22 55 -54 55c-31 0 -53 -24 -53 -55s22 -55 53 -55zM950 103c32 0 54 26 54 55
c0 31 -22 55 -54 55c-31 0 -53 -24 -53 -55s22 -55 53 -55z" />
    <glyph glyph-name="arrowup" unicode="&#x2191;" horiz-adv-x="680" 
d="M640 400v-198l-225 225v-427h-150v427l-225 -225v198l300 300z" />
    <glyph glyph-name="uni2197" unicode="&#x2197;" horiz-adv-x="645" 
d="M181 622h424v-424l-140 -140v322l-324 -323l-101 101l323 324h-322z" />
    <glyph glyph-name="arrowright" unicode="&#x2192;" horiz-adv-x="790" 
d="M450 650l300 -300l-300 -300h-198l228 228h-440v144h440l-228 228h198z" />
    <glyph glyph-name="uni2198" unicode="&#x2198;" horiz-adv-x="645" 
d="M465 631l140 -140v-424h-424l-140 140h322l-323 324l101 101l324 -323v322z" />
    <glyph glyph-name="arrowdown" unicode="&#x2193;" horiz-adv-x="680" 
d="M415 273l225 225v-198l-300 -300l-300 300v198l225 -225v427h150v-427z" />
    <glyph glyph-name="uni2199" unicode="&#x2199;" horiz-adv-x="645" 
d="M605 531l-323 -324h322l-140 -140h-424v424l140 140v-322l324 323z" />
    <glyph glyph-name="arrowleft" unicode="&#x2190;" horiz-adv-x="790" 
d="M750 422v-144h-440l228 -228h-198l-300 300l300 300h198l-228 -228h440z" />
    <glyph glyph-name="uni2196" unicode="&#x2196;" horiz-adv-x="645" 
d="M605 158l-101 -101l-324 323v-322l-140 140v424h424l140 -140h-322z" />
    <glyph glyph-name="arrowboth" unicode="&#x2194;" horiz-adv-x="1100" 
d="M780 630l280 -280l-280 -280h-194l205 208h-485l208 -208h-194l-280 280l280 280h194l-208 -208h488l-208 208h194z" />
    <glyph glyph-name="arrowupdn" unicode="&#x2195;" horiz-adv-x="640" 
d="M600 386l-205 205v-482l205 205v-194l-280 -280l-280 280v194l205 -205v482l-205 -205v194l280 280l280 -280v-194z" />
    <glyph glyph-name="lozenge" unicode="&#x25ca;" horiz-adv-x="560" 
d="M226 0l-186 350l186 350h108l186 -350l-186 -350h-108zM280 203l78 147l-78 147l-78 -147z" />
    <glyph glyph-name="at" unicode="@" horiz-adv-x="774" 
d="M394 612c223 0 350 -177 350 -342c0 -143 -69 -219 -164 -219c-71 0 -117 31 -137 78c-23 -28 -56 -44 -96 -44c-84 0 -142 70 -142 165s58 165 142 165c34 0 64 -12 86 -33v21h122v-236c0 -41 17 -66 56 -66c54 0 93 54 93 169c0 172 -135 306 -310 306
c-182 0 -324 -142 -324 -326c0 -188 144 -326 342 -326c62 0 113 8 159 24v-38c-44 -14 -95 -22 -159 -22c-218 0 -382 152 -382 362c0 200 156 362 364 362zM381 193c31 0 51 24 51 57c0 34 -20 57 -51 57c-32 0 -52 -23 -52 -57c0 -33 20 -57 52 -57z" />
    <glyph glyph-name="ampersand" unicode="&#x26;" horiz-adv-x="678" 
d="M658 46l-125 -72l-62 67c-49 -34 -109 -55 -181 -55c-144 0 -250 79 -250 211c0 80 40 155 112 201c-18 31 -29 66 -29 111c0 118 91 205 225 205c101 0 187 -50 230 -153l-137 -79c-18 47 -46 76 -91 76c-40 0 -67 -25 -67 -59c0 -39 24 -65 55 -99l129 -143
c14 32 25 69 33 110l134 -76c-13 -49 -34 -101 -64 -147zM303 132c26 0 49 5 70 16l-128 138l-6 6c-26 -21 -37 -50 -37 -78c0 -47 30 -82 101 -82z" />
    <glyph glyph-name="paragraph" unicode="&#xb6;" horiz-adv-x="698" 
d="M650 700v-130h-62v-770h-140v770h-68v-770h-140v460c-122 0 -220 99 -220 220c0 122 98 220 220 220h410z" />
    <glyph glyph-name="section" unicode="&#xa7;" horiz-adv-x="552" 
d="M517 292c0 -54 -22 -99 -58 -131c18 -25 30 -57 30 -99c0 -120 -98 -174 -208 -174c-107 0 -186 34 -226 124l135 77c19 -52 49 -71 91 -71s58 19 58 44c0 38 -70 54 -142 84c-75 31 -152 76 -152 174c0 55 23 97 60 126c-17 25 -27 57 -27 98c0 117 98 170 198 170
c84 0 166 -39 206 -128l-124 -67c-20 41 -45 65 -82 65c-32 0 -48 -16 -48 -40c0 -39 61 -57 130 -84c77 -30 159 -72 159 -168zM195 330c0 -33 30 -51 70 -66c26 -10 56 -19 86 -31c10 9 16 21 16 39c0 36 -34 52 -80 69c-24 9 -50 17 -76 28c-10 -9 -16 -21 -16 -39z" />
    <glyph glyph-name="copyright" unicode="&#xa9;" horiz-adv-x="784" 
d="M392 -12c-200 0 -362 162 -362 362s162 362 362 362s362 -162 362 -362s-162 -362 -362 -362zM392 24c178 0 322 146 322 326s-144 326 -322 326s-322 -146 -322 -326s144 -326 322 -326zM395 153c-109 0 -199 90 -199 197s90 197 199 197c69 0 133 -36 169 -97l-110 -64
c-10 16 -29 34 -62 34c-43 0 -70 -34 -70 -70s27 -70 70 -70c33 0 52 18 62 34l110 -64c-35 -61 -100 -97 -169 -97z" />
    <glyph glyph-name="registered" unicode="&#xae;" horiz-adv-x="784" 
d="M392 712c200 0 362 -162 362 -362s-162 -362 -362 -362s-362 162 -362 362s162 362 362 362zM392 24c178 0 322 146 322 326s-144 326 -322 326s-322 -146 -322 -326s144 -326 322 -326zM551 411c0 -48 -20 -86 -51 -111l76 -135h-131l-48 102h-28v-102h-122v370h160
c74 0 144 -47 144 -124zM369 425v-58h25c21 0 35 12 35 29c0 22 -14 29 -35 29h-25z" />
    <glyph glyph-name="trademark" unicode="&#x2122;" horiz-adv-x="476" 
d="M207 700v-62h-55v-138h-67v138h-55v62h177zM382 700h64v-200h-64v100l-43 -64h-6l-43 64v-100h-64v200h64l46 -69z" />
    <glyph glyph-name="degree" unicode="&#xb0;" horiz-adv-x="406" 
d="M203 470c-100 0 -173 77 -173 170c0 94 73 170 173 170s173 -76 173 -170c0 -93 -71 -170 -173 -170zM203 590c30 0 49 20 49 50c0 29 -20 50 -49 50s-49 -21 -49 -50s20 -50 49 -50z" />
    <glyph glyph-name="bar" unicode="|" horiz-adv-x="270" 
d="M60 -200v920h150v-920h-150z" />
    <glyph glyph-name="brokenbar" unicode="&#xa6;" horiz-adv-x="270" 
d="M60 350v370h150v-370h-150zM60 -200v370h150v-370h-150z" />
    <glyph glyph-name="dagger" unicode="&#x2020;" horiz-adv-x="480" 
d="M440 575v-144h-125v-431h-150v431h-125v144h125v125h150v-125h125z" />
    <glyph glyph-name="daggerdbl" unicode="&#x2021;" horiz-adv-x="480" 
d="M440 431h-125v-162h125v-144h-125v-125h-150v125h-125v144h125v162h-125v144h125v125h150v-125h125v-144z" />
    <glyph glyph-name="estimated" unicode="&#x212e;" horiz-adv-x="780" 
d="M390 710c221 0 370 -161 370 -360c0 -10 -5 -15 -15 -15h-560c-10 0 -15 -5 -15 -15v-192c0 -8 2 -13 7 -19c54 -57 128 -89 233 -89c99 0 177 36 231 97c5 6 10 9 18 9h37c13 0 18 -9 9 -19c-67 -72 -168 -117 -295 -117c-241 0 -390 161 -390 360s149 360 370 360z
M610 572c0 8 -2 13 -7 19c-54 57 -128 89 -213 89s-159 -32 -213 -89c-5 -6 -7 -11 -7 -19v-192c0 -10 5 -15 15 -15h410c10 0 15 5 15 15v192z" />
    <glyph glyph-name="uni2116" unicode="&#x2116;" horiz-adv-x="1046" 
d="M843 374c-100 0 -173 77 -173 170c0 94 73 170 173 170s173 -76 173 -170c0 -93 -71 -170 -173 -170zM450 700h160v-700h-120l-270 380v-380h-160v700h120l270 -380v380zM843 494c30 0 49 20 49 50c0 29 -20 50 -49 50s-49 -21 -49 -50s20 -50 49 -50zM684 184v140h322
v-140h-322z" />
    <glyph glyph-name="asciicircum" unicode="^" 
d="M344 700l196 -340h-160l-90 167l-90 -167h-160l196 340h108z" />
    <glyph glyph-name="uni0308" unicode="&#x308;" horiz-adv-x="0" 
d="M-285 540c-41 0 -75 34 -75 75s34 75 75 75s75 -34 75 -75s-34 -75 -75 -75zM-95 540c-41 0 -75 34 -75 75s34 75 75 75s75 -34 75 -75s-34 -75 -75 -75z" />
    <glyph glyph-name="uni0307" unicode="&#x307;" horiz-adv-x="0" 
d="M-105 545c-46 0 -85 39 -85 85s39 85 85 85s85 -39 85 -85s-39 -85 -85 -85z" />
    <glyph glyph-name="gravecomb" unicode="&#x300;" horiz-adv-x="0" 
d="M-20 560l-80 140h-180l116 -140h144z" />
    <glyph glyph-name="acutecomb" unicode="&#x301;" horiz-adv-x="0" 
d="M-280 560h144l116 140h-180z" />
    <glyph glyph-name="uni030B" unicode="&#x30b;" horiz-adv-x="0" 
d="M-447 550h148l86 140h-154zM-264 550h148l96 140h-154z" />
    <glyph glyph-name="uni0302" unicode="&#x302;" horiz-adv-x="0" 
d="M-20 550h-145l-35 55l-35 -55h-145l106 150h148z" />
    <glyph glyph-name="uni030C" unicode="&#x30c;" horiz-adv-x="0" 
d="M-165 700h145l-106 -150h-148l-106 150h145l35 -55z" />
    <glyph glyph-name="uni0306" unicode="&#x306;" horiz-adv-x="0" 
d="M-195 542c-113 0 -175 55 -175 150h132c0 -29 15 -46 43 -46s43 17 43 46h132c0 -95 -62 -150 -175 -150z" />
    <glyph glyph-name="uni030A" unicode="&#x30a;" horiz-adv-x="0" 
d="M-158 535c-78 0 -133 54 -133 125s55 125 133 125c80 0 133 -54 133 -125s-53 -125 -133 -125zM-158 626c24 0 36 15 36 34s-12 34 -36 34c-23 0 -35 -15 -35 -34s12 -34 35 -34z" />
    <glyph glyph-name="tildecomb" unicode="&#x303;" horiz-adv-x="0" 
d="M-369 553c0 171 105 189 196 133c34 -21 43 -16 43 24h120c0 -171 -105 -189 -196 -133c-34 21 -43 16 -43 -24h-120z" />
    <glyph glyph-name="uni0304" unicode="&#x304;" horiz-adv-x="0" 
d="M-320 559v120h300v-120h-300z" />
    <glyph glyph-name="uni0312" unicode="&#x312;" horiz-adv-x="0" 
d="M-140 980l-30 -210h140l10 210h-120z" />
    <glyph glyph-name="uni0326" unicode="&#x326;" horiz-adv-x="0" 
d="M-50 -270l30 210h-140l-10 -210h120z" />
    <glyph glyph-name="uni0327" unicode="&#x327;" horiz-adv-x="0" 
d="M-83 -46c27 -7 63 -29 63 -77c0 -63 -57 -103 -225 -93v104c65 -5 95 1 95 14c0 12 -21 17 -53 20v78h120v-46z" />
    <glyph glyph-name="uni0328" unicode="&#x328;" horiz-adv-x="0" 
d="M-118 -214c-55 0 -100 28 -100 91c0 38 26 83 64 123h124c-29 -32 -45 -64 -45 -85c-1 -16 7 -26 22 -26c6 -1 14 1 23 4v-90c-27 -11 -52 -17 -88 -17z" />
    <glyph glyph-name="acute" unicode="&#xb4;" horiz-adv-x="300" 
d="M20 560h144l116 140h-180z" />
    <glyph glyph-name="breve" unicode="&#x2d8;" horiz-adv-x="390" 
d="M195 542c-113 0 -175 55 -175 150h132c0 -29 15 -46 43 -46s43 17 43 46h132c0 -95 -62 -150 -175 -150z" />
    <glyph glyph-name="caron" unicode="&#x2c7;" horiz-adv-x="400" 
d="M235 700h145l-106 -150h-148l-106 150h145l35 -55z" />
    <glyph glyph-name="cedilla" unicode="&#xb8;" horiz-adv-x="265" 
d="M182 -46c27 -7 63 -29 63 -77c0 -63 -57 -103 -225 -93v104c65 -5 95 1 95 14c0 12 -21 17 -53 20v78h120v-46z" />
    <glyph glyph-name="circumflex" unicode="&#x2c6;" horiz-adv-x="400" 
d="M380 550h-145l-35 55l-35 -55h-145l106 150h148z" />
    <glyph glyph-name="dieresis" unicode="&#xa8;" horiz-adv-x="380" 
d="M95 540c-41 0 -75 34 -75 75s34 75 75 75s75 -34 75 -75s-34 -75 -75 -75zM285 540c-41 0 -75 34 -75 75s34 75 75 75s75 -34 75 -75s-34 -75 -75 -75z" />
    <glyph glyph-name="dotaccent" unicode="&#x2d9;" horiz-adv-x="220" 
d="M105 545c-46 0 -85 39 -85 85s39 85 85 85s85 -39 85 -85s-39 -85 -85 -85z" />
    <glyph glyph-name="grave" unicode="`" horiz-adv-x="300" 
d="M280 560l-80 140h-180l116 -140h144z" />
    <glyph glyph-name="hungarumlaut" unicode="&#x2dd;" horiz-adv-x="467" 
d="M20 550h148l86 140h-154zM203 550h148l96 140h-154z" />
    <glyph glyph-name="macron" unicode="&#xaf;" horiz-adv-x="340" 
d="M20 559v120h300v-120h-300z" />
    <glyph glyph-name="ogonek" unicode="&#x2db;" horiz-adv-x="228" 
d="M120 -214c-55 0 -100 28 -100 91c0 38 26 83 64 123h124c-29 -32 -45 -64 -45 -85c-1 -16 7 -26 22 -26c6 -1 14 1 23 4v-90c-27 -11 -52 -17 -88 -17z" />
    <glyph glyph-name="ring" unicode="&#x2da;" horiz-adv-x="306" 
d="M153 535c-78 0 -133 54 -133 125s55 125 133 125c80 0 133 -54 133 -125s-53 -125 -133 -125zM153 626c24 0 36 15 36 34s-12 34 -36 34c-23 0 -35 -15 -35 -34s12 -34 35 -34z" />
    <glyph glyph-name="tilde" unicode="&#x2dc;" horiz-adv-x="399" 
d="M20 553c0 171 105 189 196 133c34 -21 43 -16 43 24h120c0 -171 -105 -189 -196 -133c-34 21 -43 16 -43 -24h-120z" />
    <glyph glyph-name="brevecy" horiz-adv-x="380" 
d="M40 559v130h300v-130h-300z" />
    </font>
</defs>
</svg>
