<?xml version="1.0" standalone="no"?>
<!DOCTYPE svg PUBLIC "-//W3C//DTD SVG 1.1//EN" "http://www.w3.org/Graphics/SVG/1.1/DTD/svg11.dtd" >
<svg>
<metadata>
Created by FontForge 20120731 at Wed May  1 10:20:36 2019
 By www-data
Copyright \(c\) 2016 by Radomir Tinkov. All rights reserved.
</metadata>
<defs>
<font id="Gilroy-Medium" horiz-adv-x="633" >
  <font-face 
    font-family="Gilroy Medium"
    font-weight="500"
    font-stretch="normal"
    units-per-em="1000"
    panose-1="0 0 6 0 0 0 0 0 0 0"
    ascent="800"
    descent="-200"
    x-height="500"
    cap-height="700"
    bbox="-350 -248 1034 965"
    underline-thickness="50"
    underline-position="-50"
    unicode-range="U+0020-FB02"
  />
<missing-glyph horiz-adv-x="500" 
d="M410 800v-1000h-317v1000h317zM333 733h-165v-33h65v-37h-66v-33h166v33h-66v37h66v33zM267 604h-100v-104h166v34h-66v70zM233 570v-36h-33v36h33zM333 473h-166v-33h66v-37h-66v-33h100v70h66v33zM333 413h-33v-66h-133v-34h166v100zM333 291h-100v-56h34v23h33v-47
h-100v80h-33v-113h166v113zM333 118h-166v-113h166v113zM300 85v-47h-100v47h100zM333 -18h-166v-33h70l-70 -47v-33h166v33h-102l70 47h32v33z" />
    <glyph glyph-name="f_f" unicode="ff" horiz-adv-x="595" 
d="M595 639c-87 7 -131 -27 -131 -114v-25h131v-84h-131v-416h-87v416h-186v-416h-87v416h-80v84h80v15c0 133 76 208 219 198v-84c-87 7 -132 -27 -132 -114v-15h186v25c0 133 75 208 218 198v-84z" />
    <glyph glyph-name="f_f_i" unicode="ffi" horiz-adv-x="802" 
d="M736 500v-500h-87v416h-185v-416h-87v416h-186v-416h-87v416h-80v84h80v15c0 133 76 208 219 198v-84c-87 7 -132 -27 -132 -114v-15h186v25c0 133 75 198 218 198c33 0 66 -5 103 -13v-79c-37 5 -70 8 -103 8c-87 0 -131 -27 -131 -114v-25h272z" />
    <glyph glyph-name="f_f_l" unicode="ffl" horiz-adv-x="802" 
d="M595 723c49 0 93 -6 141 -15v-708h-87v643c-18 1 -36 2 -54 2c-87 0 -131 -33 -131 -120v-25h104v-84h-104v-416h-87v416h-186v-416h-87v416h-80v84h80v15c0 133 76 208 219 198v-84c-87 7 -132 -27 -132 -114v-15h186v25c0 133 75 198 218 198z" />
    <glyph glyph-name="fi" unicode="fi" horiz-adv-x="530" 
d="M463 500v-500h-87v416h-185v-416h-87v416h-80v84h80v15c0 133 76 198 219 198c32 0 65 -5 103 -13v-79c-38 5 -71 8 -103 8c-87 0 -132 -27 -132 -114v-15h272z" />
    <glyph glyph-name="fl" unicode="fl" horiz-adv-x="530" 
d="M323 713c48 0 92 -6 140 -15v-698h-87v633c-18 1 -36 2 -53 2c-87 0 -132 -33 -132 -120v-15h104v-84h-104v-416h-87v416h-80v84h80v15c0 133 76 198 219 198z" />
    <glyph glyph-name=".notdef" horiz-adv-x="500" 
d="M410 800v-1000h-317v1000h317zM333 733h-165v-33h65v-37h-66v-33h166v33h-66v37h66v33zM267 604h-100v-104h166v34h-66v70zM233 570v-36h-33v36h33zM333 473h-166v-33h66v-37h-66v-33h100v70h66v33zM333 413h-33v-66h-133v-34h166v100zM333 291h-100v-56h34v23h33v-47
h-100v80h-33v-113h166v113zM333 118h-166v-113h166v113zM300 85v-47h-100v47h100zM333 -18h-166v-33h70l-70 -47v-33h166v33h-102l70 47h32v33z" />
    <glyph glyph-name="A" unicode="A" horiz-adv-x="643" 
d="M536 0l-57 157h-315l-57 -157h-99l261 700h105l261 -700h-99zM196 244h251l-126 345z" />
    <glyph glyph-name="Aacute" unicode="&#xc1;" horiz-adv-x="643" 
d="M446 900l-101 -132h-84l80 132h105zM536 0l-57 157h-315l-57 -157h-99l261 700h105l261 -700h-99zM196 244h251l-126 345z" />
    <glyph glyph-name="Abreve" unicode="&#x102;" horiz-adv-x="643" 
d="M321 757c-91 0 -149 49 -149 135h81c0 -46 24 -65 68 -65s68 19 68 65h81c0 -86 -56 -135 -149 -135zM536 0l-57 157h-315l-57 -157h-99l261 700h105l261 -700h-99zM196 244h251l-126 345z" />
    <glyph glyph-name="Acircumflex" unicode="&#xc2;" horiz-adv-x="643" 
d="M320 846l-61 -81h-93l106 135h96l106 -135h-93zM536 0l-57 157h-315l-57 -157h-99l261 700h105l261 -700h-99zM196 244h251l-126 345z" />
    <glyph glyph-name="Adieresis" unicode="&#xc4;" horiz-adv-x="643" 
d="M226 766c-29 0 -53 24 -53 53s24 52 53 52s52 -23 52 -52s-23 -53 -52 -53zM416 766c-29 0 -53 24 -53 53s24 52 53 52s52 -23 52 -52s-23 -53 -52 -53zM536 0l-57 157h-315l-57 -157h-99l261 700h105l261 -700h-99zM196 244h251l-126 345z" />
    <glyph glyph-name="Agrave" unicode="&#xc0;" horiz-adv-x="643" 
d="M388 768h-84l-101 132h105zM536 0l-57 157h-315l-57 -157h-99l261 700h105l261 -700h-99zM196 244h251l-126 345z" />
    <glyph glyph-name="Amacron" unicode="&#x100;" horiz-adv-x="643" 
d="M456 848v-73h-270v73h270zM536 0l-57 157h-315l-57 -157h-99l261 700h105l261 -700h-99zM196 244h251l-126 345z" />
    <glyph glyph-name="Aogonek" unicode="&#x104;" horiz-adv-x="643" 
d="M567 -114c0 -21 11 -30 31 -30c13 0 24 2 37 8v-64c-19 -8 -40 -13 -66 -13c-54 0 -87 31 -87 80c0 40 26 88 70 133h-16l-57 157h-315l-57 -157h-99l261 700h105l261 -700c-42 -40 -68 -84 -68 -114zM196 244h251l-126 345z" />
    <glyph glyph-name="Aring" unicode="&#xc5;" horiz-adv-x="643" 
d="M536 0l-57 157h-315l-57 -157h-99l251 673c-31 18 -50 51 -50 90c0 60 46 106 113 106c68 0 113 -46 113 -106c0 -39 -19 -73 -51 -91l251 -672h-99zM322 808c-30 0 -47 -20 -47 -45c0 -26 17 -46 47 -46c32 0 48 20 48 46c0 25 -16 45 -48 45zM196 244h251l-126 345z
" />
    <glyph glyph-name="Atilde" unicode="&#xc3;" horiz-adv-x="643" 
d="M316 797c-48 35 -72 46 -72 -24h-73c0 135 80 152 154 99c49 -35 72 -46 72 23h73c0 -135 -79 -151 -154 -98zM536 0l-57 157h-315l-57 -157h-99l261 700h105l261 -700h-99zM196 244h251l-126 345z" />
    <glyph glyph-name="AE" unicode="&#xc6;" horiz-adv-x="880" 
d="M541 88h302v-88h-393v157h-250l-95 -157h-105l424 700h414v-88h-297v-215h279v-87h-279v-222zM252 244h198v328z" />
    <glyph glyph-name="B" unicode="B" horiz-adv-x="615" 
d="M475 363c63 -30 105 -89 105 -165c0 -112 -90 -198 -203 -198h-302v700h280c109 0 196 -83 196 -191c0 -63 -30 -114 -76 -146zM355 613h-187v-214h187c58 0 104 47 104 107c0 59 -46 107 -104 107zM377 87c62 0 111 50 111 114c0 63 -49 113 -111 113h-209v-227h209z
" />
    <glyph glyph-name="C" unicode="C" horiz-adv-x="739" 
d="M404 -13c-214 0 -366 162 -366 363c0 202 152 363 366 363c129 0 243 -67 302 -170l-81 -47c-40 77 -125 127 -221 127c-164 0 -274 -119 -274 -273c0 -153 110 -272 274 -272c96 0 181 50 221 126l81 -46c-58 -103 -172 -171 -302 -171z" />
    <glyph glyph-name="Cacute" unicode="&#x106;" horiz-adv-x="739" 
d="M344 771h84l101 132h-105zM404 -13c-214 0 -366 162 -366 363c0 202 152 363 366 363c129 0 243 -67 302 -170l-81 -47c-40 77 -125 127 -221 127c-164 0 -274 -119 -274 -273c0 -153 110 -272 274 -272c96 0 181 50 221 126l81 -46c-58 -103 -172 -171 -302 -171z" />
    <glyph glyph-name="Ccaron" unicode="&#x10c;" horiz-adv-x="739" 
d="M355 768l-106 135h93l61 -81l61 81h93l-106 -135h-96zM404 78c96 0 181 50 221 126l81 -46c-58 -103 -172 -171 -302 -171c-214 0 -366 162 -366 363c0 202 152 363 366 363c129 0 243 -67 302 -170l-81 -47c-40 77 -125 127 -221 127c-164 0 -274 -119 -274 -273
c0 -153 110 -272 274 -272z" />
    <glyph glyph-name="Ccedilla" unicode="&#xc7;" horiz-adv-x="739" 
d="M404 78c96 0 181 50 221 126l81 -46c-52 -93 -151 -158 -265 -169v-34c49 -10 85 -38 85 -80c0 -54 -42 -101 -210 -91v66c90 -7 134 6 134 31c0 24 -31 33 -83 36v72c-194 17 -329 172 -329 361c0 202 152 363 366 363c129 0 243 -67 302 -170l-81 -47
c-40 77 -125 127 -221 127c-164 0 -274 -119 -274 -273c0 -153 110 -272 274 -272z" />
    <glyph glyph-name="Cdotaccent" unicode="&#x10a;" horiz-adv-x="739" 
d="M404 767c-35 0 -63 28 -63 62c0 35 28 63 63 63c34 0 62 -28 62 -63c0 -34 -28 -62 -62 -62zM404 -13c-214 0 -366 162 -366 363c0 202 152 363 366 363c129 0 243 -67 302 -170l-81 -47c-40 77 -125 127 -221 127c-164 0 -274 -119 -274 -273c0 -153 110 -272 274 -272
c96 0 181 50 221 126l81 -46c-58 -103 -172 -171 -302 -171z" />
    <glyph glyph-name="D" unicode="D" horiz-adv-x="718" 
d="M348 700c193 0 332 -156 332 -350s-139 -350 -332 -350h-273v700h273zM348 88c144 0 243 114 243 262s-99 262 -243 262h-180v-524h180z" />
    <glyph glyph-name="Eth" unicode="&#xd0;" horiz-adv-x="743" 
d="M373 700c193 0 332 -156 332 -350s-139 -350 -332 -350h-273v306h-73v84h73v310h273zM373 88c144 0 243 114 243 262s-99 262 -243 262h-180v-222h199v-84h-199v-218h180z" />
    <glyph glyph-name="Dcaron" unicode="&#x10e;" horiz-adv-x="718" 
d="M296 765l-106 135h93l61 -81l61 81h93l-106 -135h-96zM348 700c193 0 332 -156 332 -350s-139 -350 -332 -350h-273v700h273zM348 88c144 0 243 114 243 262s-99 262 -243 262h-180v-524h180z" />
    <glyph glyph-name="Dcroat" unicode="&#x110;" horiz-adv-x="743" 
d="M373 700c193 0 332 -156 332 -350s-139 -350 -332 -350h-273v306h-73v84h73v310h273zM373 88c144 0 243 114 243 262s-99 262 -243 262h-180v-222h199v-84h-199v-218h180z" />
    <glyph glyph-name="E" unicode="E" horiz-adv-x="530" 
d="M168 88h325v-88h-418v700h413v-88h-320v-215h295v-87h-295v-222z" />
    <glyph glyph-name="Eacute" unicode="&#xc9;" horiz-adv-x="530" 
d="M407 900l-101 -132h-84l80 132h105zM168 88h325v-88h-418v700h413v-88h-320v-215h295v-87h-295v-222z" />
    <glyph glyph-name="Ecaron" unicode="&#x11a;" horiz-adv-x="530" 
d="M233 765l-106 135h93l61 -81l61 81h93l-106 -135h-96zM168 88h325v-88h-418v700h413v-88h-320v-215h295v-87h-295v-222z" />
    <glyph glyph-name="Ecircumflex" unicode="&#xca;" horiz-adv-x="530" 
d="M281 846l-61 -81h-93l106 135h96l106 -135h-93zM168 88h325v-88h-418v700h413v-88h-320v-215h295v-87h-295v-222z" />
    <glyph glyph-name="Edieresis" unicode="&#xcb;" horiz-adv-x="530" 
d="M187 766c-29 0 -53 24 -53 53s24 52 53 52s52 -23 52 -52s-23 -53 -52 -53zM377 766c-29 0 -53 24 -53 53s24 52 53 52s52 -23 52 -52s-23 -53 -52 -53zM168 88h325v-88h-418v700h413v-88h-320v-215h295v-87h-295v-222z" />
    <glyph glyph-name="Edotaccent" unicode="&#x116;" horiz-adv-x="530" 
d="M282 764c-35 0 -63 28 -63 62c0 35 28 63 63 63c34 0 62 -28 62 -63c0 -34 -28 -62 -62 -62zM168 88h325v-88h-418v700h413v-88h-320v-215h295v-87h-295v-222z" />
    <glyph glyph-name="Egrave" unicode="&#xc8;" horiz-adv-x="530" 
d="M349 768h-84l-101 132h105zM168 88h325v-88h-418v700h413v-88h-320v-215h295v-87h-295v-222z" />
    <glyph glyph-name="Emacron" unicode="&#x112;" horiz-adv-x="530" 
d="M417 848v-73h-270v73h270zM168 88h325v-88h-418v700h413v-88h-320v-215h295v-87h-295v-222z" />
    <glyph glyph-name="Eogonek" unicode="&#x118;" horiz-adv-x="530" 
d="M493 0c-42 -40 -68 -84 -68 -114c-1 -21 11 -30 31 -30c12 0 24 2 37 8v-64c-20 -8 -40 -13 -66 -13c-55 0 -87 31 -87 80c0 40 25 88 70 133h-335v700h413v-88h-320v-215h295v-87h-295v-222h325v-88z" />
    <glyph glyph-name="F" unicode="F" horiz-adv-x="516" 
d="M478 612h-310v-227h297v-88h-297v-297h-93v700h403v-88z" />
    <glyph glyph-name="G" unicode="G" horiz-adv-x="788" 
d="M750 347v-42c0 -178 -132 -318 -343 -318c-216 0 -369 163 -369 363c0 201 154 363 367 363c131 0 245 -69 303 -169l-80 -47c-40 75 -125 126 -224 126c-162 0 -274 -120 -274 -273c0 -152 111 -272 278 -272c145 0 231 80 249 185h-257v84h350z" />
    <glyph glyph-name="Gbreve" unicode="&#x11e;" horiz-adv-x="788" 
d="M394 760c-91 0 -149 49 -149 135h81c0 -46 24 -65 68 -65s68 19 68 65h81c0 -86 -56 -135 -149 -135zM750 347v-42c0 -178 -132 -318 -343 -318c-216 0 -369 163 -369 363c0 201 154 363 367 363c131 0 245 -69 303 -169l-80 -47c-40 75 -125 126 -224 126
c-162 0 -274 -120 -274 -273c0 -152 111 -272 278 -272c145 0 231 80 249 185h-257v84h350z" />
    <glyph glyph-name="Gcommaaccent" unicode="&#x122;" horiz-adv-x="788" 
d="M750 347v-42c0 -178 -132 -318 -343 -318c-216 0 -369 163 -369 363c0 201 154 363 367 363c131 0 245 -69 303 -169l-80 -47c-40 75 -125 126 -224 126c-162 0 -274 -120 -274 -273c0 -152 111 -272 278 -272c145 0 231 80 249 185h-257v84h350zM370 -248l10 180h85
l-30 -180h-65z" />
    <glyph glyph-name="Gdotaccent" unicode="&#x120;" horiz-adv-x="788" 
d="M394 767c-35 0 -63 28 -63 62c0 35 28 63 63 63c34 0 62 -28 62 -63c0 -34 -28 -62 -62 -62zM750 347v-42c0 -178 -132 -318 -343 -318c-216 0 -369 163 -369 363c0 201 154 363 367 363c131 0 245 -69 303 -169l-80 -47c-40 75 -125 126 -224 126
c-162 0 -274 -120 -274 -273c0 -152 111 -272 278 -272c145 0 231 80 249 185h-257v84h350z" />
    <glyph glyph-name="H" unicode="H" horiz-adv-x="675" 
d="M508 700h92v-700h-92v315h-340v-315h-93v700h93v-297h340v297z" />
    <glyph glyph-name="Hbar" unicode="&#x126;" horiz-adv-x="723" 
d="M688 579v-71h-64v-508h-93v309h-340v-309h-92v508h-64v71h64v121h92v-121h340v121h93v-121h64zM531 397v111h-340v-111h340z" />
    <glyph glyph-name="I" unicode="I" horiz-adv-x="243" 
d="M75 700h93v-700h-93v700z" />
    <glyph glyph-name="Iacute" unicode="&#xcd;" horiz-adv-x="243" 
d="M61 768h84l101 132h-105zM75 700h93v-700h-93v700z" />
    <glyph glyph-name="Icircumflex" unicode="&#xce;" horiz-adv-x="243" 
d="M168 900l106 -135h-93l-61 81l-61 -81h-93l106 135h96zM75 0v700h93v-700h-93z" />
    <glyph glyph-name="Idieresis" unicode="&#xcf;" horiz-adv-x="243" 
d="M26 766c-29 0 -53 24 -53 53s24 52 53 52s52 -23 52 -52s-23 -53 -52 -53zM216 766c-29 0 -53 24 -53 53s24 52 53 52s52 -23 52 -52s-23 -53 -52 -53zM75 700h93v-700h-93v700z" />
    <glyph glyph-name="Idotaccent" unicode="&#x130;" horiz-adv-x="243" 
d="M121 764c-35 0 -63 28 -63 62c0 35 28 63 63 63c34 0 62 -28 62 -63c0 -34 -28 -62 -62 -62zM75 700h93v-700h-93v700z" />
    <glyph glyph-name="Igrave" unicode="&#xcc;" horiz-adv-x="243" 
d="M188 768l-80 132h-105l101 -132h84zM75 700h93v-700h-93v700z" />
    <glyph glyph-name="Imacron" unicode="&#x12a;" horiz-adv-x="243" 
d="M-14 775v73h270v-73h-270zM75 700h93v-700h-93v700z" />
    <glyph glyph-name="Iogonek" unicode="&#x12e;" horiz-adv-x="243" 
d="M157 -144c13 0 25 2 38 8v-64c-20 -8 -40 -13 -67 -13c-54 0 -86 31 -86 80c0 41 18 91 40 133h-7v700h93v-700c-24 -43 -42 -77 -42 -114c0 -21 12 -30 31 -30z" />
    <glyph glyph-name="J" unicode="J" horiz-adv-x="558" 
d="M257 -13c-99 0 -182 42 -219 125l79 46c22 -56 72 -80 140 -80c86 0 143 40 143 127v495h92v-495c0 -146 -107 -218 -235 -218z" />
    <glyph glyph-name="K" unicode="K" horiz-adv-x="592" 
d="M584 0h-114l-302 336v-336h-93v700h93v-316l292 316h114l-309 -340z" />
    <glyph glyph-name="Kcommaaccent" unicode="&#x136;" horiz-adv-x="592" 
d="M265 360l319 -360h-114l-302 336v-336h-93v700h93v-316l292 316h114zM257 -248l10 180h85l-30 -180h-65z" />
    <glyph glyph-name="L" unicode="L" horiz-adv-x="488" 
d="M168 88h302v-88h-395v700h93v-612z" />
    <glyph glyph-name="Lacute" unicode="&#x139;" horiz-adv-x="488" 
d="M262 900l-101 -132h-84l80 132h105zM168 88h302v-88h-395v700h93v-612z" />
    <glyph glyph-name="Lcaron" unicode="&#x13d;" horiz-adv-x="488" 
d="M168 88h302v-88h-395v700h93v-612zM357 700l-30 -175h-67l10 175h87z" />
    <glyph glyph-name="Lcommaaccent" unicode="&#x13b;" horiz-adv-x="488" 
d="M168 88h302v-88h-395v700h93v-612zM231 -248l10 180h85l-30 -180h-65z" />
    <glyph glyph-name="Lslash" unicode="&#x141;" horiz-adv-x="508" 
d="M188 88h302v-88h-395v233l-60 -35v88l60 35v379h93v-324l157 93v-88l-157 -93v-200z" />
    <glyph glyph-name="M" unicode="M" horiz-adv-x="805" 
d="M730 700v-700h-92v547l-229 -381h-12l-229 380v-546h-93v700h105l223 -370l222 370h105z" />
    <glyph glyph-name="N" unicode="N" horiz-adv-x="678" 
d="M510 700h93v-700h-75l-360 523v-523h-93v700h75l360 -522v522z" />
    <glyph glyph-name="Nacute" unicode="&#x143;" horiz-adv-x="678" 
d="M276 768h84l101 132h-105zM510 700h93v-700h-75l-360 523v-523h-93v700h75l360 -522v522z" />
    <glyph glyph-name="Ncaron" unicode="&#x147;" horiz-adv-x="678" 
d="M287 765l-106 135h93l61 -81l61 81h93l-106 -135h-96zM510 700h93v-700h-75l-360 523v-523h-93v700h75l360 -522v522z" />
    <glyph glyph-name="Ncommaaccent" unicode="&#x145;" horiz-adv-x="678" 
d="M510 700h93v-700h-75l-360 523v-523h-93v700h75l360 -522v522zM354 -248l30 180h-85l-10 -180h65z" />
    <glyph glyph-name="Eng" unicode="&#x14a;" horiz-adv-x="678" 
d="M510 700h93v-700c0 -149 -94 -203 -218 -200v87c74 0 125 18 125 116v23l-342 497v-523h-93v700h75l360 -522v522z" />
    <glyph glyph-name="Ntilde" unicode="&#xd1;" horiz-adv-x="678" 
d="M186 773c0 135 80 152 154 99c49 -35 72 -46 72 23h73c0 -135 -79 -151 -154 -98c-48 35 -72 46 -72 -24h-73zM510 700h93v-700h-75l-360 523v-523h-93v700h75l360 -522v522z" />
    <glyph glyph-name="O" unicode="O" horiz-adv-x="800" 
d="M400 -13c-203 0 -362 162 -362 363c0 202 159 363 362 363s363 -161 363 -363c0 -201 -160 -363 -363 -363zM400 78c153 0 270 119 270 272c0 154 -117 273 -270 273s-270 -119 -270 -273c0 -153 117 -272 270 -272z" />
    <glyph glyph-name="Oacute" unicode="&#xd3;" horiz-adv-x="800" 
d="M340 771h84l101 132h-105zM400 -13c-203 0 -362 162 -362 363c0 202 159 363 362 363s363 -161 363 -363c0 -201 -160 -363 -363 -363zM400 78c153 0 270 119 270 272c0 154 -117 273 -270 273s-270 -119 -270 -273c0 -153 117 -272 270 -272z" />
    <glyph glyph-name="Ocircumflex" unicode="&#xd4;" horiz-adv-x="800" 
d="M399 849l-61 -81h-93l106 135h96l106 -135h-93zM400 713c203 0 363 -161 363 -363c0 -201 -160 -363 -363 -363s-362 162 -362 363c0 202 159 363 362 363zM400 78c153 0 270 119 270 272c0 154 -117 273 -270 273s-270 -119 -270 -273c0 -153 117 -272 270 -272z" />
    <glyph glyph-name="Odieresis" unicode="&#xd6;" horiz-adv-x="800" 
d="M305 769c-29 0 -53 24 -53 53s24 52 53 52s52 -23 52 -52s-23 -53 -52 -53zM495 769c-29 0 -53 24 -53 53s24 52 53 52s52 -23 52 -52s-23 -53 -52 -53zM400 -13c-203 0 -362 162 -362 363c0 202 159 363 362 363s363 -161 363 -363c0 -201 -160 -363 -363 -363zM400 78
c153 0 270 119 270 272c0 154 -117 273 -270 273s-270 -119 -270 -273c0 -153 117 -272 270 -272z" />
    <glyph glyph-name="Ograve" unicode="&#xd2;" horiz-adv-x="800" 
d="M467 771l-80 132h-105l101 -132h84zM400 -13c-203 0 -362 162 -362 363c0 202 159 363 362 363s363 -161 363 -363c0 -201 -160 -363 -363 -363zM400 78c153 0 270 119 270 272c0 154 -117 273 -270 273s-270 -119 -270 -273c0 -153 117 -272 270 -272z" />
    <glyph glyph-name="Ohungarumlaut" unicode="&#x150;" horiz-adv-x="800" 
d="M255 768h88l79 133h-94zM408 768h88l89 133h-94zM400 -13c-203 0 -362 162 -362 363c0 202 159 363 362 363s363 -161 363 -363c0 -201 -160 -363 -363 -363zM400 78c153 0 270 119 270 272c0 154 -117 273 -270 273s-270 -119 -270 -273c0 -153 117 -272 270 -272z" />
    <glyph glyph-name="Omacron" unicode="&#x14c;" horiz-adv-x="800" 
d="M265 778v73h270v-73h-270zM400 -13c-203 0 -362 162 -362 363c0 202 159 363 362 363s363 -161 363 -363c0 -201 -160 -363 -363 -363zM400 78c153 0 270 119 270 272c0 154 -117 273 -270 273s-270 -119 -270 -273c0 -153 117 -272 270 -272z" />
    <glyph glyph-name="Oslash" unicode="&#xd8;" horiz-adv-x="809" 
d="M667 607c65 -65 105 -156 105 -257c0 -201 -160 -363 -363 -363c-79 0 -151 25 -210 66l-49 -57l-54 32l55 66c-64 65 -104 156 -104 256c0 202 159 363 362 363c79 0 152 -24 211 -66l48 57l54 -31zM139 350c0 -73 27 -139 71 -187l351 415c-43 28 -95 45 -152 45
c-153 0 -270 -119 -270 -273zM409 78c153 0 270 119 270 272c0 74 -27 139 -71 188l-351 -415c43 -29 95 -45 152 -45z" />
    <glyph glyph-name="Otilde" unicode="&#xd5;" horiz-adv-x="800" 
d="M250 776c0 135 80 152 154 99c49 -35 72 -46 72 23h73c0 -135 -79 -151 -154 -98c-48 35 -72 46 -72 -24h-73zM400 -13c-203 0 -362 162 -362 363c0 202 159 363 362 363s363 -161 363 -363c0 -201 -160 -363 -363 -363zM400 78c153 0 270 119 270 272
c0 154 -117 273 -270 273s-270 -119 -270 -273c0 -153 117 -272 270 -272z" />
    <glyph glyph-name="OE" unicode="&#x152;" horiz-adv-x="915" 
d="M578 88h300v-88h-393c-29 -8 -62 -13 -95 -13c-203 0 -352 162 -352 363c0 202 149 363 352 363c33 0 66 -5 95 -13h388v-88h-295v-215h277v-87h-277v-222zM485 93v515c-29 10 -61 15 -95 15c-153 0 -260 -119 -260 -273c0 -153 107 -272 260 -272c34 0 66 4 95 15z" />
    <glyph glyph-name="P" unicode="P" horiz-adv-x="590" 
d="M329 700c129 0 226 -97 226 -225c0 -127 -97 -225 -226 -225h-161v-250h-93v700h254zM329 337c77 0 134 59 134 138c0 80 -57 138 -134 138h-161v-276h161z" />
    <glyph glyph-name="Thorn" unicode="&#xde;" horiz-adv-x="590" 
d="M330 575c128 0 225 -97 225 -225c0 -127 -97 -225 -225 -225h-162v-125h-93v700h93v-125h162zM330 212c76 0 133 59 133 138c0 80 -57 138 -133 138h-162v-276h162z" />
    <glyph glyph-name="Q" unicode="Q" horiz-adv-x="805" 
d="M763 350c0 -97 -38 -184 -99 -249l77 -77l-64 -58l-79 80c-57 -37 -125 -59 -198 -59c-200 0 -362 162 -362 363c0 202 162 363 362 363s363 -161 363 -363zM400 78c48 0 93 12 132 34l-140 141l64 57l144 -144c44 48 70 112 70 184c0 154 -120 273 -270 273
s-270 -119 -270 -273c0 -153 120 -272 270 -272z" />
    <glyph glyph-name="R" unicode="R" horiz-adv-x="611" 
d="M490 0l-157 268h-165v-268h-93v700h280c120 0 218 -97 218 -217c0 -92 -61 -173 -145 -203l165 -280h-103zM168 613v-261h187c69 0 125 59 125 131s-56 130 -125 130h-187z" />
    <glyph glyph-name="Racute" unicode="&#x154;" horiz-adv-x="611" 
d="M430 900l-101 -132h-84l80 132h105zM490 0l-157 268h-165v-268h-93v700h280c120 0 218 -97 218 -217c0 -92 -61 -173 -145 -203l165 -280h-103zM168 613v-261h187c69 0 125 59 125 131s-56 130 -125 130h-187z" />
    <glyph glyph-name="Rcaron" unicode="&#x158;" horiz-adv-x="611" 
d="M256 765l-106 135h93l61 -81l61 81h93l-106 -135h-96zM490 0l-157 268h-165v-268h-93v700h280c120 0 218 -97 218 -217c0 -92 -61 -173 -145 -203l165 -280h-103zM168 613v-261h187c69 0 125 59 125 131s-56 130 -125 130h-187z" />
    <glyph glyph-name="Rcommaaccent" unicode="&#x156;" horiz-adv-x="611" 
d="M428 280l165 -280h-103l-157 268h-165v-268h-93v700h280c120 0 218 -97 218 -217c0 -92 -61 -173 -145 -203zM168 613v-261h187c69 0 125 59 125 131s-56 130 -125 130h-187zM278 -248l10 180h85l-30 -180h-65z" />
    <glyph glyph-name="S" unicode="S" horiz-adv-x="578" 
d="M301 -13c-133 0 -228 67 -265 172l80 46c25 -77 85 -127 187 -127c99 0 148 45 148 108c0 72 -62 96 -165 128c-112 36 -220 71 -220 201c0 126 103 198 220 198c115 0 198 -65 237 -153l-78 -45c-25 60 -74 108 -159 108c-75 0 -127 -40 -127 -104
c0 -65 49 -89 147 -120c122 -40 237 -76 237 -211c0 -123 -99 -201 -242 -201z" />
    <glyph glyph-name="Sacute" unicode="&#x15a;" horiz-adv-x="578" 
d="M226 771h84l101 132h-105zM301 -13c-133 0 -228 67 -265 172l80 46c25 -77 85 -127 187 -127c99 0 148 45 148 108c0 72 -62 96 -165 128c-112 36 -220 71 -220 201c0 126 103 198 220 198c115 0 198 -65 237 -153l-78 -45c-25 60 -74 108 -159 108
c-75 0 -127 -40 -127 -104c0 -65 49 -89 147 -120c122 -40 237 -76 237 -211c0 -123 -99 -201 -242 -201z" />
    <glyph glyph-name="Scaron" unicode="&#x160;" horiz-adv-x="578" 
d="M237 768l-106 135h93l61 -81l61 81h93l-106 -135h-96zM306 399c122 -40 237 -76 237 -211c0 -123 -99 -201 -242 -201c-133 0 -228 67 -265 172l80 46c25 -77 85 -127 187 -127c99 0 148 45 148 108c0 72 -62 96 -165 128c-112 36 -220 71 -220 201
c0 126 103 198 220 198c115 0 198 -65 237 -153l-78 -45c-25 60 -74 108 -159 108c-75 0 -127 -40 -127 -104c0 -65 49 -89 147 -120z" />
    <glyph glyph-name="Scedilla" unicode="&#x15e;" horiz-adv-x="578" 
d="M543 188c0 -114 -85 -190 -212 -200v-33c49 -10 85 -38 85 -80c0 -54 -42 -101 -210 -91v66c90 -7 134 6 134 31c0 24 -31 33 -83 36v73c-110 13 -188 76 -221 169l80 46c25 -77 85 -127 187 -127c99 0 148 45 148 108c0 72 -62 96 -165 128c-112 36 -220 71 -220 201
c0 126 103 198 220 198c115 0 198 -65 237 -153l-78 -45c-25 60 -74 108 -159 108c-75 0 -127 -40 -127 -104c0 -65 49 -89 147 -120c122 -40 237 -76 237 -211z" />
    <glyph glyph-name="Scommaaccent" unicode="&#x218;" horiz-adv-x="578" 
d="M301 -13c-133 0 -228 67 -265 172l80 46c25 -77 85 -127 187 -127c99 0 148 45 148 108c0 72 -62 96 -165 128c-112 36 -220 71 -220 201c0 126 103 198 220 198c115 0 198 -65 237 -153l-78 -45c-25 60 -74 108 -159 108c-75 0 -127 -40 -127 -104
c0 -65 49 -89 147 -120c122 -40 237 -76 237 -211c0 -123 -99 -201 -242 -201zM320 -248l30 180h-85l-10 -180h65z" />
    <glyph glyph-name="T" unicode="T" horiz-adv-x="540" 
d="M523 700v-88h-207v-612h-92v612h-206v88h505z" />
    <glyph glyph-name="Tbar" unicode="&#x166;" horiz-adv-x="540" 
d="M523 612h-207v-222h137v-84h-137v-306h-92v306h-136v84h136v222h-206v88h505v-88z" />
    <glyph glyph-name="Tcaron" unicode="&#x164;" horiz-adv-x="540" 
d="M221 765l-106 135h93l61 -81l61 81h93l-106 -135h-96zM523 700v-88h-207v-612h-92v612h-206v88h505z" />
    <glyph glyph-name="uni0162" unicode="&#x162;" horiz-adv-x="540" 
d="M523 700v-88h-207v-612h-92v612h-206v88h505zM220 -248l10 180h85l-30 -180h-65z" />
    <glyph glyph-name="uni021A" unicode="&#x21a;" horiz-adv-x="540" 
d="M523 700v-88h-207v-612h-92v612h-206v88h505zM220 -248l10 180h85l-30 -180h-65z" />
    <glyph glyph-name="U" unicode="U" horiz-adv-x="658" 
d="M329 -13c-153 0 -263 96 -263 248v465h93v-461c0 -97 58 -161 170 -161s170 64 170 161v461h92v-465c0 -152 -109 -248 -262 -248z" />
    <glyph glyph-name="Uacute" unicode="&#xda;" horiz-adv-x="658" 
d="M269 768h84l101 132h-105zM329 -13c-153 0 -263 96 -263 248v465h93v-461c0 -97 58 -161 170 -161s170 64 170 161v461h92v-465c0 -152 -109 -248 -262 -248z" />
    <glyph glyph-name="Ucircumflex" unicode="&#xdb;" horiz-adv-x="658" 
d="M328 846l-61 -81h-93l106 135h96l106 -135h-93zM499 700h92v-465c0 -152 -109 -248 -262 -248s-263 96 -263 248v465h93v-461c0 -97 58 -161 170 -161s170 64 170 161v461z" />
    <glyph glyph-name="Udieresis" unicode="&#xdc;" horiz-adv-x="658" 
d="M234 766c-29 0 -53 24 -53 53s24 52 53 52s52 -23 52 -52s-23 -53 -52 -53zM424 766c-29 0 -53 24 -53 53s24 52 53 52s52 -23 52 -52s-23 -53 -52 -53zM329 -13c-153 0 -263 96 -263 248v465h93v-461c0 -97 58 -161 170 -161s170 64 170 161v461h92v-465
c0 -152 -109 -248 -262 -248z" />
    <glyph glyph-name="Ugrave" unicode="&#xd9;" horiz-adv-x="658" 
d="M396 768l-80 132h-105l101 -132h84zM329 -13c-153 0 -263 96 -263 248v465h93v-461c0 -97 58 -161 170 -161s170 64 170 161v461h92v-465c0 -152 -109 -248 -262 -248z" />
    <glyph glyph-name="Uhungarumlaut" unicode="&#x170;" horiz-adv-x="658" 
d="M184 765h88l79 133h-94zM337 765h88l89 133h-94zM329 -13c-153 0 -263 96 -263 248v465h93v-461c0 -97 58 -161 170 -161s170 64 170 161v461h92v-465c0 -152 -109 -248 -262 -248z" />
    <glyph glyph-name="Umacron" unicode="&#x16a;" horiz-adv-x="658" 
d="M194 775v73h270v-73h-270zM329 -13c-153 0 -263 96 -263 248v465h93v-461c0 -97 58 -161 170 -161s170 64 170 161v461h92v-465c0 -152 -109 -248 -262 -248z" />
    <glyph glyph-name="Uogonek" unicode="&#x172;" horiz-adv-x="658" 
d="M499 700h92v-465c0 -85 -34 -152 -91 -195c-78 -73 -109 -112 -109 -154c-1 -21 11 -30 31 -30c12 0 24 2 37 8v-64c-20 -8 -40 -13 -66 -13c-55 0 -87 31 -87 80c0 37 21 80 59 122c-11 -1 -24 -2 -36 -2c-153 0 -263 96 -263 248v465h93v-461c0 -97 58 -161 170 -161
s170 64 170 161v461z" />
    <glyph glyph-name="Uring" unicode="&#x16e;" horiz-adv-x="658" 
d="M329 716c-67 0 -113 46 -113 107c0 60 46 106 113 106c68 0 113 -46 113 -106c0 -61 -45 -107 -113 -107zM329 777c32 0 48 20 48 46c0 25 -16 45 -48 45c-30 0 -47 -20 -47 -45c0 -26 17 -46 47 -46zM329 -13c-153 0 -263 96 -263 248v465h93v-461
c0 -97 58 -161 170 -161s170 64 170 161v461h92v-465c0 -152 -109 -248 -262 -248z" />
    <glyph glyph-name="V" unicode="V" horiz-adv-x="621" 
d="M258 0l-250 700h100l203 -584l202 584h101l-251 -700h-105z" />
    <glyph glyph-name="W" unicode="W" horiz-adv-x="1000" 
d="M226 0l-201 700h98l160 -576l170 576h94l170 -576l160 576h98l-201 -700h-108l-166 559l-166 -559h-108z" />
    <glyph glyph-name="Wacute" unicode="&#x1e82;" horiz-adv-x="1000" 
d="M450 768h84l101 132h-105zM226 0l-201 700h98l160 -576l170 576h94l170 -576l160 576h98l-201 -700h-108l-166 559l-166 -559h-108z" />
    <glyph glyph-name="Wcircumflex" unicode="&#x174;" horiz-adv-x="1000" 
d="M509 846l-61 -81h-93l106 135h96l106 -135h-93zM877 700h98l-201 -700h-108l-166 559l-166 -559h-108l-201 700h98l160 -576l170 576h94l170 -576z" />
    <glyph glyph-name="Wdieresis" unicode="&#x1e84;" horiz-adv-x="1000" 
d="M415 766c-29 0 -53 24 -53 53s24 52 53 52s52 -23 52 -52s-23 -53 -52 -53zM605 766c-29 0 -53 24 -53 53s24 52 53 52s52 -23 52 -52s-23 -53 -52 -53zM226 0l-201 700h98l160 -576l170 576h94l170 -576l160 576h98l-201 -700h-108l-166 559l-166 -559h-108z" />
    <glyph glyph-name="Wgrave" unicode="&#x1e80;" horiz-adv-x="1000" 
d="M577 768l-80 132h-105l101 -132h84zM226 0l-201 700h98l160 -576l170 576h94l170 -576l160 576h98l-201 -700h-108l-166 559l-166 -559h-108z" />
    <glyph glyph-name="X" unicode="X" horiz-adv-x="590" 
d="M573 0h-106l-172 276l-172 -276h-105l225 360l-212 340h105l159 -255l159 255h105l-211 -339z" />
    <glyph glyph-name="Y" unicode="Y" horiz-adv-x="604" 
d="M596 700l-248 -417v-283h-93v284l-247 416h104l190 -328l190 328h104z" />
    <glyph glyph-name="Yacute" unicode="&#xdd;" horiz-adv-x="604" 
d="M424 900l-101 -132h-84l80 132h105zM596 700l-248 -417v-283h-93v284l-247 416h104l190 -328l190 328h104z" />
    <glyph glyph-name="Ycircumflex" unicode="&#x176;" horiz-adv-x="604" 
d="M298 846l-61 -81h-93l106 135h96l106 -135h-93zM596 700l-248 -417v-283h-93v284l-247 416h104l190 -328l190 328h104z" />
    <glyph glyph-name="Ydieresis" unicode="&#x178;" horiz-adv-x="604" 
d="M204 766c-29 0 -53 24 -53 53s24 52 53 52s52 -23 52 -52s-23 -53 -52 -53zM394 766c-29 0 -53 24 -53 53s24 52 53 52s52 -23 52 -52s-23 -53 -52 -53zM596 700l-248 -417v-283h-93v284l-247 416h104l190 -328l190 328h104z" />
    <glyph glyph-name="Ygrave" unicode="&#x1ef2;" horiz-adv-x="604" 
d="M366 768h-84l-101 132h105zM596 700l-248 -417v-283h-93v284l-247 416h104l190 -328l190 328h104z" />
    <glyph glyph-name="Z" unicode="Z" horiz-adv-x="525" 
d="M149 88h347v-88h-457v81l338 531h-329v88h440v-80z" />
    <glyph glyph-name="Zacute" unicode="&#x179;" horiz-adv-x="525" 
d="M393 900l-101 -132h-84l80 132h105zM149 88h347v-88h-457v81l338 531h-329v88h440v-80z" />
    <glyph glyph-name="Zcaron" unicode="&#x17d;" horiz-adv-x="525" 
d="M219 765l-106 135h93l61 -81l61 81h93l-106 -135h-96zM149 88h347v-88h-457v81l338 531h-329v88h440v-80z" />
    <glyph glyph-name="Zdotaccent" unicode="&#x17b;" horiz-adv-x="525" 
d="M268 764c-35 0 -63 28 -63 62c0 35 28 63 63 63c34 0 62 -28 62 -63c0 -34 -28 -62 -62 -62zM149 88h347v-88h-457v81l338 531h-329v88h440v-80z" />
    <glyph glyph-name="a" unicode="a" 
d="M480 500h87v-500h-87v86c-40 -61 -104 -99 -189 -99c-139 0 -253 115 -253 263s114 263 253 263c85 0 149 -38 189 -99v86zM302 71c101 0 178 77 178 179s-77 179 -178 179c-100 0 -177 -77 -177 -179s77 -179 177 -179z" />
    <glyph glyph-name="aacute" unicode="&#xe1;" 
d="M431 700l-101 -132h-84l80 132h105zM480 500h87v-500h-87v86c-40 -61 -104 -99 -189 -99c-139 0 -253 115 -253 263s114 263 253 263c85 0 149 -38 189 -99v86zM302 71c101 0 178 77 178 179s-77 179 -178 179c-100 0 -177 -77 -177 -179s77 -179 177 -179z" />
    <glyph glyph-name="abreve" unicode="&#x103;" 
d="M306 557c-91 0 -149 49 -149 135h81c0 -46 24 -65 68 -65s68 19 68 65h81c0 -86 -56 -135 -149 -135zM480 500h87v-500h-87v86c-40 -61 -104 -99 -189 -99c-139 0 -253 115 -253 263s114 263 253 263c85 0 149 -38 189 -99v86zM302 71c101 0 178 77 178 179
s-77 179 -178 179c-100 0 -177 -77 -177 -179s77 -179 177 -179z" />
    <glyph glyph-name="acircumflex" unicode="&#xe2;" 
d="M305 646l-61 -81h-93l106 135h96l106 -135h-93zM480 500h87v-500h-87v86c-40 -61 -104 -99 -189 -99c-139 0 -253 115 -253 263s114 263 253 263c85 0 149 -38 189 -99v86zM302 71c101 0 178 77 178 179s-77 179 -178 179c-100 0 -177 -77 -177 -179s77 -179 177 -179z
" />
    <glyph glyph-name="adieresis" unicode="&#xe4;" 
d="M211 566c-29 0 -53 24 -53 53s24 52 53 52s52 -23 52 -52s-23 -53 -52 -53zM401 566c-29 0 -53 24 -53 53s24 52 53 52s52 -23 52 -52s-23 -53 -52 -53zM480 500h87v-500h-87v86c-40 -61 -104 -99 -189 -99c-139 0 -253 115 -253 263s114 263 253 263
c85 0 149 -38 189 -99v86zM302 71c101 0 178 77 178 179s-77 179 -178 179c-100 0 -177 -77 -177 -179s77 -179 177 -179z" />
    <glyph glyph-name="agrave" unicode="&#xe0;" 
d="M373 568h-84l-101 132h105zM480 500h87v-500h-87v86c-40 -61 -104 -99 -189 -99c-139 0 -253 115 -253 263s114 263 253 263c85 0 149 -38 189 -99v86zM302 71c101 0 178 77 178 179s-77 179 -178 179c-100 0 -177 -77 -177 -179s77 -179 177 -179z" />
    <glyph glyph-name="amacron" unicode="&#x101;" 
d="M441 648v-73h-270v73h270zM480 500h87v-500h-87v86c-40 -61 -104 -99 -189 -99c-139 0 -253 115 -253 263s114 263 253 263c85 0 149 -38 189 -99v86zM302 71c101 0 178 77 178 179s-77 179 -178 179c-100 0 -177 -77 -177 -179s77 -179 177 -179z" />
    <glyph glyph-name="aogonek" unicode="&#x105;" 
d="M567 0c-42 -40 -69 -84 -69 -114c0 -21 12 -30 31 -30c13 0 25 2 38 8v-64c-20 -8 -40 -13 -67 -13c-54 0 -86 31 -86 80c0 37 21 84 66 136v83c-40 -61 -104 -99 -189 -99c-139 0 -253 115 -253 263s114 263 253 263c85 0 149 -38 189 -99v86h87v-500zM302 71
c101 0 178 77 178 179s-77 179 -178 179c-100 0 -177 -77 -177 -179s77 -179 177 -179z" />
    <glyph glyph-name="aring" unicode="&#xe5;" 
d="M306 546c-67 0 -113 46 -113 107c0 60 46 106 113 106c68 0 113 -46 113 -106c0 -61 -45 -107 -113 -107zM306 698c-30 0 -47 -20 -47 -45c0 -26 17 -46 47 -46c32 0 48 20 48 46c0 25 -16 45 -48 45zM480 500h87v-500h-87v86c-40 -61 -104 -99 -189 -99
c-139 0 -253 115 -253 263s114 263 253 263c85 0 149 -38 189 -99v86zM302 71c101 0 178 77 178 179s-77 179 -178 179c-100 0 -177 -77 -177 -179s77 -179 177 -179z" />
    <glyph glyph-name="atilde" unicode="&#xe3;" 
d="M301 597c-48 35 -72 46 -72 -24h-73c0 135 80 152 154 99c49 -35 72 -46 72 23h73c0 -135 -79 -151 -154 -98zM480 500h87v-500h-87v86c-40 -61 -104 -99 -189 -99c-139 0 -253 115 -253 263s114 263 253 263c85 0 149 -38 189 -99v86zM302 71c101 0 178 77 178 179
s-77 179 -178 179c-100 0 -177 -77 -177 -179s77 -179 177 -179z" />
    <glyph glyph-name="ae" unicode="&#xe6;" horiz-adv-x="1024" 
d="M570 210c16 -90 85 -141 176 -141c72 0 122 32 147 73l74 -42c-44 -68 -115 -113 -210 -113c-86 0 -153 36 -193 98v-85h-84v86c-40 -61 -104 -99 -189 -99c-139 0 -253 115 -253 263s114 263 253 263c85 0 149 -38 189 -99v86h84v-85c39 60 103 98 187 98
c154 0 239 -124 239 -264c0 -13 -1 -26 -3 -39h-417zM742 431c-96 0 -159 -57 -172 -144h332c-14 98 -83 144 -160 144zM302 71c101 0 178 77 178 179s-77 179 -178 179c-100 0 -177 -77 -177 -179s77 -179 177 -179z" />
    <glyph glyph-name="b" unicode="b" 
d="M342 513c139 0 253 -115 253 -263s-114 -263 -253 -263c-85 0 -149 38 -189 99v-86h-87v700h87v-286c40 61 104 99 189 99zM331 71c100 0 177 77 177 179s-77 179 -177 179c-101 0 -178 -77 -178 -179s77 -179 178 -179z" />
    <glyph glyph-name="c" unicode="c" horiz-adv-x="547" 
d="M301 -13c-151 0 -263 115 -263 263s112 263 263 263c99 0 183 -52 221 -131l-73 -42c-25 53 -81 88 -148 88c-100 0 -176 -77 -176 -178c0 -100 76 -177 176 -177c68 0 123 35 151 87l74 -43c-42 -78 -127 -130 -225 -130z" />
    <glyph glyph-name="cacute" unicode="&#x107;" horiz-adv-x="547" 
d="M233 568h84l101 132h-105zM301 -13c-151 0 -263 115 -263 263s112 263 263 263c99 0 183 -52 221 -131l-73 -42c-25 53 -81 88 -148 88c-100 0 -176 -77 -176 -178c0 -100 76 -177 176 -177c68 0 123 35 151 87l74 -43c-42 -78 -127 -130 -225 -130z" />
    <glyph glyph-name="ccaron" unicode="&#x10d;" horiz-adv-x="547" 
d="M244 565l-106 135h93l61 -81l61 81h93l-106 -135h-96zM452 160l74 -43c-42 -78 -127 -130 -225 -130c-151 0 -263 115 -263 263s112 263 263 263c99 0 183 -52 221 -131l-73 -42c-25 53 -81 88 -148 88c-100 0 -176 -77 -176 -178c0 -100 76 -177 176 -177
c68 0 123 35 151 87z" />
    <glyph glyph-name="ccedilla" unicode="&#xe7;" horiz-adv-x="547" 
d="M526 117c-37 -68 -106 -116 -188 -127v-35c49 -10 85 -38 85 -80c0 -54 -42 -101 -210 -91v66c90 -7 134 6 134 31c0 24 -31 33 -83 36v72c-132 17 -226 125 -226 261c0 148 112 263 263 263c99 0 183 -52 221 -131l-73 -42c-25 53 -81 88 -148 88
c-100 0 -176 -77 -176 -178c0 -100 76 -177 176 -177c68 0 123 35 151 87z" />
    <glyph glyph-name="cdotaccent" unicode="&#x10b;" horiz-adv-x="547" 
d="M293 564c-35 0 -63 28 -63 62c0 35 28 63 63 63c34 0 62 -28 62 -63c0 -34 -28 -62 -62 -62zM301 -13c-151 0 -263 115 -263 263s112 263 263 263c99 0 183 -52 221 -131l-73 -42c-25 53 -81 88 -148 88c-100 0 -176 -77 -176 -178c0 -100 76 -177 176 -177
c68 0 123 35 151 87l74 -43c-42 -78 -127 -130 -225 -130z" />
    <glyph glyph-name="d" unicode="d" 
d="M480 700h87v-700h-87v86c-40 -61 -104 -99 -189 -99c-139 0 -253 115 -253 263s114 263 253 263c85 0 149 -38 189 -99v286zM302 71c101 0 178 77 178 179s-77 179 -178 179c-100 0 -177 -77 -177 -179s77 -179 177 -179z" />
    <glyph glyph-name="eth" unicode="&#xf0;" horiz-adv-x="581" 
d="M498 370c27 -38 46 -85 46 -140c0 -149 -119 -242 -253 -242s-253 93 -253 242c0 143 121 242 255 231c14 -1 26 -2 38 -5l-75 102l-118 -67v70l81 46l-68 93h101l39 -52l114 65v-70l-78 -44zM291 71c89 0 166 60 166 159c0 37 -9 68 -27 92c-23 30 -63 63 -138 63
c-95 0 -167 -60 -167 -155c0 -99 76 -159 166 -159z" />
    <glyph glyph-name="dcaron" unicode="&#x10f;" horiz-adv-x="713" 
d="M480 414v286h87v-700h-87v86c-40 -61 -104 -99 -189 -99c-139 0 -253 115 -253 263s114 263 253 263c85 0 149 -38 189 -99zM639 700h84l-30 -180h-64zM302 71c101 0 178 77 178 179s-77 179 -178 179c-100 0 -177 -77 -177 -179s77 -179 177 -179z" />
    <glyph glyph-name="dcroat" unicode="&#x111;" horiz-adv-x="642" 
d="M634 633v-64h-67v-569h-87v86c-40 -61 -104 -99 -189 -99c-139 0 -253 115 -253 263s114 263 253 263c85 0 149 -38 189 -99v155h-173v64h173v67h87v-67h67zM302 71c101 0 178 77 178 179s-77 179 -178 179c-100 0 -177 -77 -177 -179s77 -179 177 -179z" />
    <glyph glyph-name="e" unicode="e" horiz-adv-x="583" 
d="M127 210c17 -90 88 -141 181 -141c69 0 119 32 144 73l74 -42c-44 -68 -120 -113 -220 -113c-161 0 -268 113 -268 263c0 148 106 263 262 263c151 0 249 -124 249 -264c0 -13 -1 -26 -3 -39h-419zM300 431c-94 0 -159 -58 -173 -145h334c-15 99 -86 145 -161 145z" />
    <glyph glyph-name="eacute" unicode="&#xe9;" horiz-adv-x="583" 
d="M419 701l-101 -132h-84l80 132h105zM127 210c17 -90 88 -141 181 -141c69 0 119 32 144 73l74 -42c-44 -68 -120 -113 -220 -113c-161 0 -268 113 -268 263c0 148 106 263 262 263c151 0 249 -124 249 -264c0 -13 -1 -26 -3 -39h-419zM300 431c-94 0 -159 -58 -173 -145
h334c-15 99 -86 145 -161 145z" />
    <glyph glyph-name="ecaron" unicode="&#x11b;" horiz-adv-x="583" 
d="M245 566l-106 135h93l61 -81l61 81h93l-106 -135h-96zM127 210c17 -90 88 -141 181 -141c69 0 119 32 144 73l74 -42c-44 -68 -120 -113 -220 -113c-161 0 -268 113 -268 263c0 148 106 263 262 263c151 0 249 -124 249 -264c0 -13 -1 -26 -3 -39h-419zM300 431
c-94 0 -159 -58 -173 -145h334c-15 99 -86 145 -161 145z" />
    <glyph glyph-name="ecircumflex" unicode="&#xea;" horiz-adv-x="583" 
d="M293 647l-61 -81h-93l106 135h96l106 -135h-93zM127 210c17 -90 88 -141 181 -141c69 0 119 32 144 73l74 -42c-44 -68 -120 -113 -220 -113c-161 0 -268 113 -268 263c0 148 106 263 262 263c151 0 249 -124 249 -264c0 -13 -1 -26 -3 -39h-419zM300 431
c-94 0 -159 -58 -173 -145h334c-15 99 -86 145 -161 145z" />
    <glyph glyph-name="edieresis" unicode="&#xeb;" horiz-adv-x="583" 
d="M199 567c-29 0 -53 24 -53 53s24 52 53 52s52 -23 52 -52s-23 -53 -52 -53zM389 567c-29 0 -53 24 -53 53s24 52 53 52s52 -23 52 -52s-23 -53 -52 -53zM127 210c17 -90 88 -141 181 -141c69 0 119 32 144 73l74 -42c-44 -68 -120 -113 -220 -113
c-161 0 -268 113 -268 263c0 148 106 263 262 263c151 0 249 -124 249 -264c0 -13 -1 -26 -3 -39h-419zM300 431c-94 0 -159 -58 -173 -145h334c-15 99 -86 145 -161 145z" />
    <glyph glyph-name="edotaccent" unicode="&#x117;" horiz-adv-x="583" 
d="M294 565c-35 0 -63 28 -63 62c0 35 28 63 63 63c34 0 62 -28 62 -63c0 -34 -28 -62 -62 -62zM127 210c17 -90 88 -141 181 -141c69 0 119 32 144 73l74 -42c-44 -68 -120 -113 -220 -113c-161 0 -268 113 -268 263c0 148 106 263 262 263c151 0 249 -124 249 -264
c0 -13 -1 -26 -3 -39h-419zM300 431c-94 0 -159 -58 -173 -145h334c-15 99 -86 145 -161 145z" />
    <glyph glyph-name="egrave" unicode="&#xe8;" horiz-adv-x="583" 
d="M361 569h-84l-101 132h105zM127 210c17 -90 88 -141 181 -141c69 0 119 32 144 73l74 -42c-44 -68 -120 -113 -220 -113c-161 0 -268 113 -268 263c0 148 106 263 262 263c151 0 249 -124 249 -264c0 -13 -1 -26 -3 -39h-419zM300 431c-94 0 -159 -58 -173 -145h334
c-15 99 -86 145 -161 145z" />
    <glyph glyph-name="emacron" unicode="&#x113;" horiz-adv-x="583" 
d="M429 649v-73h-270v73h270zM127 210c17 -90 88 -141 181 -141c69 0 119 32 144 73l74 -42c-44 -68 -120 -113 -220 -113c-161 0 -268 113 -268 263c0 148 106 263 262 263c151 0 249 -124 249 -264c0 -13 -1 -26 -3 -39h-419zM300 431c-94 0 -159 -58 -173 -145h334
c-15 99 -86 145 -161 145z" />
    <glyph glyph-name="eogonek" unicode="&#x119;" horiz-adv-x="583" 
d="M127 210c17 -90 88 -141 181 -141c69 0 119 32 144 73l74 -42c-11 -17 -24 -32 -39 -46c-81 -89 -105 -140 -105 -168c0 -21 12 -30 31 -30c13 0 25 2 37 8v-64c-19 -8 -40 -13 -66 -13c-54 0 -86 31 -86 80c0 34 18 80 64 125c-18 -3 -36 -5 -56 -5
c-161 0 -268 113 -268 263c0 148 106 263 262 263c151 0 249 -124 249 -264c0 -13 -1 -26 -3 -39h-419zM300 431c-94 0 -159 -58 -173 -145h334c-15 99 -86 145 -161 145z" />
    <glyph glyph-name="f" unicode="f" horiz-adv-x="323" 
d="M323 629c-87 7 -132 -27 -132 -114v-15h132v-84h-132v-416h-87v416h-80v84h80v15c0 133 76 208 219 198v-84z" />
    <glyph glyph-name="g" unicode="g" 
d="M481 500h86v-479c0 -156 -125 -234 -255 -234c-112 0 -196 43 -237 122l76 43c23 -47 65 -84 163 -84c104 0 167 59 167 153v71c-40 -61 -104 -100 -188 -100c-142 0 -255 115 -255 261c0 145 113 260 255 260c84 0 148 -38 188 -99v86zM303 75c101 0 178 77 178 178
c0 100 -77 177 -178 177s-178 -77 -178 -177c0 -101 77 -178 178 -178z" />
    <glyph glyph-name="gbreve" unicode="&#x11f;" 
d="M304 560c-91 0 -149 49 -149 135h81c0 -46 24 -65 68 -65s68 19 68 65h81c0 -86 -56 -135 -149 -135zM481 500h86v-479c0 -156 -125 -234 -255 -234c-112 0 -196 43 -237 122l76 43c23 -47 65 -84 163 -84c104 0 167 59 167 153v71c-40 -61 -104 -100 -188 -100
c-142 0 -255 115 -255 261c0 145 113 260 255 260c84 0 148 -38 188 -99v86zM303 75c101 0 178 77 178 178c0 100 -77 177 -178 177s-178 -77 -178 -177c0 -101 77 -178 178 -178z" />
    <glyph glyph-name="gcommaaccent" unicode="&#x123;" 
d="M350 768l-10 -180h-85l30 180h65zM481 500h86v-479c0 -156 -125 -234 -255 -234c-112 0 -196 43 -237 122l76 43c23 -47 65 -84 163 -84c104 0 167 59 167 153v71c-40 -61 -104 -100 -188 -100c-142 0 -255 115 -255 261c0 145 113 260 255 260c84 0 148 -38 188 -99v86z
M303 75c101 0 178 77 178 178c0 100 -77 177 -178 177s-178 -77 -178 -177c0 -101 77 -178 178 -178z" />
    <glyph glyph-name="gdotaccent" unicode="&#x121;" 
d="M304 567c-35 0 -63 28 -63 62c0 35 28 63 63 63c34 0 62 -28 62 -63c0 -34 -28 -62 -62 -62zM481 500h86v-479c0 -156 -125 -234 -255 -234c-112 0 -196 43 -237 122l76 43c23 -47 65 -84 163 -84c104 0 167 59 167 153v71c-40 -61 -104 -100 -188 -100
c-142 0 -255 115 -255 261c0 145 113 260 255 260c84 0 148 -38 188 -99v86zM303 75c101 0 178 77 178 178c0 100 -77 177 -178 177s-178 -77 -178 -177c0 -101 77 -178 178 -178z" />
    <glyph glyph-name="h" unicode="h" horiz-adv-x="564" 
d="M315 513c117 0 194 -78 194 -206v-307h-87v302c0 82 -47 128 -124 128c-80 0 -145 -47 -145 -165v-265h-87v700h87v-272c37 59 92 85 162 85z" />
    <glyph glyph-name="hbar" unicode="&#x127;" horiz-adv-x="573" 
d="M324 513c117 0 194 -78 194 -206v-307h-87v302c0 82 -47 128 -124 128c-80 0 -145 -47 -145 -165v-265h-87v569h-67v64h67v67h87v-67h143v-64h-143v-141c37 59 92 85 162 85z" />
    <glyph glyph-name="i" unicode="i" horiz-adv-x="220" 
d="M110 591c-33 0 -59 26 -59 58s26 59 59 59c32 0 58 -27 58 -59s-26 -58 -58 -58zM66 0v500h87v-500h-87z" />
    <glyph glyph-name="dotlessi" unicode="&#x131;" horiz-adv-x="220" 
d="M66 0v500h87v-500h-87z" />
    <glyph glyph-name="iacute" unicode="&#xed;" horiz-adv-x="220" 
d="M69 565h84l66 135h-103zM66 0v500h87v-500h-87z" />
    <glyph glyph-name="icircumflex" unicode="&#xee;" horiz-adv-x="220" 
d="M158 700l88 -135h-92l-44 70l-44 -70h-93l89 135h96zM66 0v500h87v-500h-87z" />
    <glyph glyph-name="idieresis" unicode="&#xef;" horiz-adv-x="220" 
d="M35 568c-29 0 -53 23 -53 52s24 53 53 53s52 -24 52 -53s-23 -52 -52 -52zM185 568c-29 0 -53 23 -53 52s24 53 53 53s52 -24 52 -53s-23 -52 -52 -52zM66 0v500h87v-500h-87z" />
    <glyph glyph-name="i.loclTRK" horiz-adv-x="220" 
d="M110 564c-35 0 -63 28 -63 62c0 35 28 63 63 63c34 0 62 -28 62 -63c0 -34 -28 -62 -62 -62zM66 0v500h87v-500h-87z" />
    <glyph glyph-name="igrave" unicode="&#xec;" horiz-adv-x="220" 
d="M151 565l-48 135h-102l66 -135h84zM153 0h-87v500h87v-500z" />
    <glyph glyph-name="imacron" unicode="&#x12b;" horiz-adv-x="220" 
d="M5 575v76h210v-76h-210zM66 0v500h87v-500h-87z" />
    <glyph glyph-name="iogonek" unicode="&#x12f;" horiz-adv-x="220" 
d="M110 591c-33 0 -59 26 -59 58s26 59 59 59c32 0 58 -27 58 -59s-26 -58 -58 -58zM146 -144c12 0 24 2 37 8v-64c-20 -8 -40 -13 -66 -13c-55 0 -87 39 -87 88c0 34 9 69 39 125h-3v500h87v-500c-24 -39 -38 -77 -38 -107c-1 -20 11 -37 31 -37z" />
    <glyph glyph-name="j" unicode="j" horiz-adv-x="241" 
d="M132 591c-33 0 -59 26 -59 58s26 59 59 59c32 0 58 -27 58 -59s-26 -58 -58 -58zM88 -30v530h87v-530c0 -129 -67 -192 -193 -183v84c72 -6 106 21 106 99z" />
    <glyph glyph-name="k" unicode="k" horiz-adv-x="504" 
d="M489 0h-108l-228 237v-237h-87v700h87v-421l216 221h112l-239 -242z" />
    <glyph glyph-name="kcommaaccent" unicode="&#x137;" horiz-adv-x="504" 
d="M242 258l247 -258h-108l-228 237v-237h-87v700h87v-421l216 221h112zM220 -248l10 180h85l-30 -180h-65z" />
    <glyph glyph-name="l" unicode="l" horiz-adv-x="220" 
d="M66 0v730h87v-730h-87z" />
    <glyph glyph-name="lacute" unicode="&#x13a;" horiz-adv-x="220" 
d="M66 768h84l101 132h-105zM66 0v730h87v-730h-87z" />
    <glyph glyph-name="lcaron" unicode="&#x13e;" horiz-adv-x="299" 
d="M66 0v730h87v-730h-87zM279 550l30 180h-84l-10 -180h64z" />
    <glyph glyph-name="lcommaaccent" unicode="&#x13c;" horiz-adv-x="220" 
d="M66 0v730h87v-730h-87zM124 -248l30 180h-85l-10 -180h65z" />
    <glyph glyph-name="lslash" unicode="&#x142;" horiz-adv-x="248" 
d="M230 470v-83l-63 -43v-344h-87v284l-62 -42v83l62 42v363h87v-303z" />
    <glyph glyph-name="m" unicode="m" horiz-adv-x="849" 
d="M606 513c111 0 188 -77 188 -202v-311h-87v308c0 79 -44 122 -110 122c-70 0 -123 -44 -123 -152v-278h-87v308c0 79 -41 122 -106 122c-67 0 -128 -44 -128 -152v-278h-87v500h87v-67c36 56 88 80 149 80c68 0 118 -31 147 -85c35 57 92 85 157 85z" />
    <glyph glyph-name="n" unicode="n" horiz-adv-x="564" 
d="M315 513c117 0 194 -78 194 -206v-307h-87v302c0 82 -47 128 -124 128c-80 0 -145 -47 -145 -165v-265h-87v500h87v-72c37 59 92 85 162 85z" />
    <glyph glyph-name="nacute" unicode="&#x144;" horiz-adv-x="564" 
d="M418 703l-101 -132h-84l80 132h105zM315 513c117 0 194 -78 194 -206v-307h-87v302c0 82 -47 128 -124 128c-80 0 -145 -47 -145 -165v-265h-87v500h87v-72c37 59 92 85 162 85z" />
    <glyph glyph-name="ncaron" unicode="&#x148;" horiz-adv-x="564" 
d="M244 568l-106 135h93l61 -81l61 81h93l-106 -135h-96zM315 513c117 0 194 -78 194 -206v-307h-87v302c0 82 -47 128 -124 128c-80 0 -145 -47 -145 -165v-265h-87v500h87v-72c37 59 92 85 162 85z" />
    <glyph glyph-name="ncommaaccent" unicode="&#x146;" horiz-adv-x="564" 
d="M315 513c117 0 194 -78 194 -206v-307h-87v302c0 82 -47 128 -124 128c-80 0 -145 -47 -145 -165v-265h-87v500h87v-72c37 59 92 85 162 85zM243 -248l10 180h85l-30 -180h-65z" />
    <glyph glyph-name="eng" unicode="&#x14b;" horiz-adv-x="564" 
d="M315 513c117 0 194 -78 194 -206v-337c0 -125 -66 -193 -190 -183v84c68 -7 103 20 103 99v332c0 82 -47 128 -124 128c-80 0 -145 -47 -145 -165v-265h-87v500h87v-72c37 59 92 85 162 85z" />
    <glyph glyph-name="ntilde" unicode="&#xf1;" horiz-adv-x="564" 
d="M288 600c-48 35 -72 46 -72 -24h-73c0 135 80 152 154 99c49 -35 72 -46 72 23h73c0 -135 -79 -151 -154 -98zM315 513c117 0 194 -78 194 -206v-307h-87v302c0 82 -47 128 -124 128c-80 0 -145 -47 -145 -165v-265h-87v500h87v-72c37 59 92 85 162 85z" />
    <glyph glyph-name="o" unicode="o" horiz-adv-x="602" 
d="M301 -13c-146 0 -263 115 -263 263s117 263 263 263s264 -115 264 -263s-118 -263 -264 -263zM301 72c100 0 177 77 177 178s-77 178 -177 178c-99 0 -176 -77 -176 -178s77 -178 176 -178z" />
    <glyph glyph-name="oacute" unicode="&#xf3;" horiz-adv-x="602" 
d="M241 571h84l101 132h-105zM301 -13c-146 0 -263 115 -263 263s117 263 263 263s264 -115 264 -263s-118 -263 -264 -263zM301 72c100 0 177 77 177 178s-77 178 -177 178c-99 0 -176 -77 -176 -178s77 -178 176 -178z" />
    <glyph glyph-name="ocircumflex" unicode="&#xf4;" horiz-adv-x="602" 
d="M300 649l-61 -81h-93l106 135h96l106 -135h-93zM301 513c146 0 264 -115 264 -263s-118 -263 -264 -263s-263 115 -263 263s117 263 263 263zM301 72c100 0 177 77 177 178s-77 178 -177 178c-99 0 -176 -77 -176 -178s77 -178 176 -178z" />
    <glyph glyph-name="odieresis" unicode="&#xf6;" horiz-adv-x="602" 
d="M206 569c-29 0 -53 24 -53 53s24 52 53 52s52 -23 52 -52s-23 -53 -52 -53zM396 569c-29 0 -53 24 -53 53s24 52 53 52s52 -23 52 -52s-23 -53 -52 -53zM301 -13c-146 0 -263 115 -263 263s117 263 263 263s264 -115 264 -263s-118 -263 -264 -263zM301 72
c100 0 177 77 177 178s-77 178 -177 178c-99 0 -176 -77 -176 -178s77 -178 176 -178z" />
    <glyph glyph-name="ograve" unicode="&#xf2;" horiz-adv-x="602" 
d="M368 571l-80 132h-105l101 -132h84zM301 -13c-146 0 -263 115 -263 263s117 263 263 263s264 -115 264 -263s-118 -263 -264 -263zM301 72c100 0 177 77 177 178s-77 178 -177 178c-99 0 -176 -77 -176 -178s77 -178 176 -178z" />
    <glyph glyph-name="ohungarumlaut" unicode="&#x151;" horiz-adv-x="602" 
d="M156 568h88l79 133h-94zM309 568h88l89 133h-94zM301 -13c-146 0 -263 115 -263 263s117 263 263 263s264 -115 264 -263s-118 -263 -264 -263zM301 72c100 0 177 77 177 178s-77 178 -177 178c-99 0 -176 -77 -176 -178s77 -178 176 -178z" />
    <glyph glyph-name="omacron" unicode="&#x14d;" horiz-adv-x="602" 
d="M166 578v73h270v-73h-270zM301 -13c-146 0 -263 115 -263 263s117 263 263 263s264 -115 264 -263s-118 -263 -264 -263zM301 72c100 0 177 77 177 178s-77 178 -177 178c-99 0 -176 -77 -176 -178s77 -178 176 -178z" />
    <glyph glyph-name="oslash" unicode="&#xf8;" horiz-adv-x="602" 
d="M494 431c44 -47 71 -110 71 -181c0 -148 -118 -263 -264 -263c-57 0 -110 18 -154 48l-36 -41l-45 26l43 49c-44 47 -71 110 -71 181c0 148 117 263 263 263c58 0 111 -18 154 -49l37 42l45 -26zM125 250c0 -45 15 -85 41 -116l233 266c-28 18 -61 28 -98 28
c-99 0 -176 -77 -176 -178zM301 72c100 0 177 77 177 178c0 45 -15 85 -41 116l-233 -266c28 -18 61 -28 97 -28z" />
    <glyph glyph-name="otilde" unicode="&#xf5;" horiz-adv-x="602" 
d="M151 576c0 135 80 152 154 99c49 -35 72 -46 72 23h73c0 -135 -79 -151 -154 -98c-48 35 -72 46 -72 -24h-73zM301 -13c-146 0 -263 115 -263 263s117 263 263 263s264 -115 264 -263s-118 -263 -264 -263zM301 72c100 0 177 77 177 178s-77 178 -177 178
c-99 0 -176 -77 -176 -178s77 -178 176 -178z" />
    <glyph glyph-name="oe" unicode="&#x153;" horiz-adv-x="1023" 
d="M567 210c17 -92 89 -141 179 -141c71 0 121 32 146 73l74 -42c-44 -68 -120 -113 -218 -113c-108 0 -188 53 -227 135c-41 -81 -121 -135 -221 -135c-151 0 -262 115 -262 263s111 263 262 263c100 0 180 -54 221 -135c39 81 117 135 222 135c150 0 246 -124 246 -264
c0 -13 -1 -26 -3 -39h-419zM740 431c-92 0 -158 -57 -173 -144h334c-15 98 -86 144 -161 144zM301 72c100 0 177 77 177 178s-77 178 -177 178c-104 0 -176 -77 -176 -178s72 -178 176 -178z" />
    <glyph glyph-name="p" unicode="p" 
d="M342 513c139 0 253 -115 253 -263s-114 -263 -253 -263c-85 0 -149 38 -189 99v-286h-87v700h87v-86c40 61 104 99 189 99zM331 71c100 0 177 77 177 179s-77 179 -177 179c-101 0 -178 -77 -178 -179s77 -179 178 -179z" />
    <glyph glyph-name="thorn" unicode="&#xfe;" 
d="M342 513c139 0 253 -115 253 -263s-114 -263 -253 -263c-85 0 -149 38 -189 99v-286h-87v900h87v-286c40 61 104 99 189 99zM331 71c100 0 177 77 177 179s-77 179 -177 179c-101 0 -178 -77 -178 -179s77 -179 178 -179z" />
    <glyph glyph-name="q" unicode="q" 
d="M480 500h87v-700h-87v286c-40 -61 -104 -99 -189 -99c-139 0 -253 115 -253 263s114 263 253 263c85 0 149 -38 189 -99v86zM302 71c101 0 178 77 178 179s-77 179 -178 179c-100 0 -177 -77 -177 -179s77 -179 177 -179z" />
    <glyph glyph-name="r" unicode="r" horiz-adv-x="328" 
d="M153 416c32 70 93 93 156 93v-91c-75 3 -156 -35 -156 -153v-265h-87v500h87v-84z" />
    <glyph glyph-name="racute" unicode="&#x155;" horiz-adv-x="328" 
d="M311 700l-101 -132h-84l80 132h105zM153 416c32 70 93 93 156 93v-91c-75 3 -156 -35 -156 -153v-265h-87v500h87v-84z" />
    <glyph glyph-name="rcaron" unicode="&#x159;" horiz-adv-x="328" 
d="M137 565l-106 135h93l61 -81l61 81h93l-106 -135h-96zM153 416c32 70 93 93 156 93v-91c-75 3 -156 -35 -156 -153v-265h-87v500h87v-84z" />
    <glyph glyph-name="rcommaaccent" unicode="&#x157;" horiz-adv-x="328" 
d="M153 416c32 70 93 93 156 93v-91c-75 3 -156 -35 -156 -153v-265h-87v500h87v-84zM59 -248l10 180h85l-30 -180h-65z" />
    <glyph glyph-name="s" unicode="s" horiz-adv-x="458" 
d="M141 365c0 -107 280 -44 280 -228c0 -93 -80 -150 -187 -150c-100 0 -170 48 -199 117l75 43c16 -48 62 -78 124 -78c53 0 99 19 99 68c0 107 -280 46 -280 227c0 88 76 149 177 149c82 0 148 -39 180 -104l-73 -41c-19 45 -63 64 -107 64c-45 0 -89 -22 -89 -67z" />
    <glyph glyph-name="sacute" unicode="&#x15b;" horiz-adv-x="458" 
d="M355 703l-101 -132h-84l80 132h105zM141 365c0 -107 280 -44 280 -228c0 -93 -80 -150 -187 -150c-100 0 -170 48 -199 117l75 43c16 -48 62 -78 124 -78c53 0 99 19 99 68c0 107 -280 46 -280 227c0 88 76 149 177 149c82 0 148 -39 180 -104l-73 -41
c-19 45 -63 64 -107 64c-45 0 -89 -22 -89 -67z" />
    <glyph glyph-name="scaron" unicode="&#x161;" horiz-adv-x="458" 
d="M181 568l-106 135h93l61 -81l61 81h93l-106 -135h-96zM141 365c0 -107 280 -44 280 -228c0 -93 -80 -150 -187 -150c-100 0 -170 48 -199 117l75 43c16 -48 62 -78 124 -78c53 0 99 19 99 68c0 107 -280 46 -280 227c0 88 76 149 177 149c82 0 148 -39 180 -104l-73 -41
c-19 45 -63 64 -107 64c-45 0 -89 -22 -89 -67z" />
    <glyph glyph-name="scedilla" unicode="&#x15f;" horiz-adv-x="458" 
d="M421 137c0 -82 -62 -136 -150 -148v-34c49 -10 85 -38 85 -80c0 -54 -42 -101 -210 -91v66c90 -7 134 6 134 31c0 24 -31 33 -83 36v72c-80 11 -137 55 -162 115l75 43c16 -48 62 -78 124 -78c53 0 99 19 99 68c0 107 -280 46 -280 227c0 88 76 149 177 149
c82 0 148 -39 180 -104l-73 -41c-19 45 -63 64 -107 64c-45 0 -89 -22 -89 -67c0 -107 280 -44 280 -228z" />
    <glyph glyph-name="scommaaccent" unicode="&#x219;" horiz-adv-x="458" 
d="M141 365c0 -107 280 -44 280 -228c0 -93 -80 -150 -187 -150c-100 0 -170 48 -199 117l75 43c16 -48 62 -78 124 -78c53 0 99 19 99 68c0 107 -280 46 -280 227c0 88 76 149 177 149c82 0 148 -39 180 -104l-73 -41c-19 45 -63 64 -107 64c-45 0 -89 -22 -89 -67z
M195 -248l10 180h85l-30 -180h-65z" />
    <glyph glyph-name="germandbls" unicode="&#xdf;" horiz-adv-x="523" 
d="M286 -4v78c85 -6 131 18 131 76c0 87 -135 162 -135 243c0 59 79 95 79 154c0 52 -39 84 -95 84c-57 0 -113 -31 -113 -118v-513h-87v513c0 126 84 200 202 200c114 0 180 -73 180 -159c0 -79 -78 -117 -78 -159c0 -64 134 -128 134 -253c0 -92 -68 -158 -218 -146z" />
    <glyph glyph-name="t" unicode="t" horiz-adv-x="378" 
d="M338 416h-133v-271c0 -76 44 -71 133 -67v-78c-150 -20 -220 20 -220 145v271h-99v84h99v114l87 26v-140h133v-84z" />
    <glyph glyph-name="tbar" unicode="&#x167;" horiz-adv-x="378" 
d="M338 416h-133v-124h91v-70h-91v-77c0 -76 44 -71 133 -67v-78c-150 -20 -220 20 -220 145v77h-64v70h64v124h-99v84h99v114l87 26v-140h133v-84z" />
    <glyph glyph-name="tcaron" unicode="&#x165;" horiz-adv-x="385" 
d="M351 719l-30 -168h-65l10 168h85zM205 640v-140h133v-84h-133v-271c0 -76 44 -71 133 -67v-78c-150 -20 -220 20 -220 145v271h-99v84h99v114z" />
    <glyph glyph-name="uni0163" unicode="&#x163;" horiz-adv-x="378" 
d="M338 416h-133v-271c0 -76 44 -71 133 -67v-78c-150 -20 -220 20 -220 145v271h-99v84h99v114l87 26v-140h133v-84zM183 -248l10 180h85l-30 -180h-65z" />
    <glyph glyph-name="uni021B" unicode="&#x21b;" horiz-adv-x="378" 
d="M338 416h-133v-271c0 -76 44 -71 133 -67v-78c-150 -20 -220 20 -220 145v271h-99v84h99v114l87 26v-140h133v-84zM183 -248l10 180h85l-30 -180h-65z" />
    <glyph glyph-name="u" unicode="u" horiz-adv-x="564" 
d="M411 500h87v-500h-87v72c-37 -59 -92 -85 -162 -85c-117 0 -194 78 -194 206v307h87v-302c0 -82 47 -128 124 -128c80 0 145 47 145 165v265z" />
    <glyph glyph-name="uacute" unicode="&#xfa;" horiz-adv-x="564" 
d="M400 700l-101 -132h-84l80 132h105zM411 500h87v-500h-87v72c-37 -59 -92 -85 -162 -85c-117 0 -194 78 -194 206v307h87v-302c0 -82 47 -128 124 -128c80 0 145 47 145 165v265z" />
    <glyph glyph-name="ucircumflex" unicode="&#xfb;" horiz-adv-x="564" 
d="M274 646l-61 -81h-93l106 135h96l106 -135h-93zM411 500h87v-500h-87v72c-37 -59 -92 -85 -162 -85c-117 0 -194 78 -194 206v307h87v-302c0 -82 47 -128 124 -128c80 0 145 47 145 165v265z" />
    <glyph glyph-name="udieresis" unicode="&#xfc;" horiz-adv-x="564" 
d="M180 566c-29 0 -53 24 -53 53s24 52 53 52s52 -23 52 -52s-23 -53 -52 -53zM370 566c-29 0 -53 24 -53 53s24 52 53 52s52 -23 52 -52s-23 -53 -52 -53zM411 500h87v-500h-87v72c-37 -59 -92 -85 -162 -85c-117 0 -194 78 -194 206v307h87v-302c0 -82 47 -128 124 -128
c80 0 145 47 145 165v265z" />
    <glyph glyph-name="ugrave" unicode="&#xf9;" horiz-adv-x="564" 
d="M342 568h-84l-101 132h105zM411 500h87v-500h-87v72c-37 -59 -92 -85 -162 -85c-117 0 -194 78 -194 206v307h87v-302c0 -82 47 -128 124 -128c80 0 145 47 145 165v265z" />
    <glyph glyph-name="uhungarumlaut" unicode="&#x171;" horiz-adv-x="564" 
d="M297 698l-79 -133h-88l73 133h94zM371 565h-88l83 133h94zM411 500h87v-500h-87v72c-37 -59 -92 -85 -162 -85c-117 0 -194 78 -194 206v307h87v-302c0 -82 47 -128 124 -128c80 0 145 47 145 165v265z" />
    <glyph glyph-name="umacron" unicode="&#x16b;" horiz-adv-x="564" 
d="M410 648v-73h-270v73h270zM411 500h87v-500h-87v72c-37 -59 -92 -85 -162 -85c-117 0 -194 78 -194 206v307h87v-302c0 -82 47 -128 124 -128c80 0 145 47 145 165v265z" />
    <glyph glyph-name="uogonek" unicode="&#x173;" horiz-adv-x="564" 
d="M498 0c-42 -40 -68 -84 -68 -114c0 -21 11 -30 31 -30c13 0 24 2 37 8v-64c-19 -8 -40 -13 -66 -13c-54 0 -87 31 -87 80c0 37 23 81 66 134v71c-37 -59 -92 -85 -162 -85c-117 0 -194 78 -194 206v307h87v-302c0 -82 47 -128 124 -128c80 0 145 47 145 165v265h87v-500z
" />
    <glyph glyph-name="uring" unicode="&#x16f;" horiz-adv-x="564" 
d="M275 546c-67 0 -113 46 -113 107c0 60 46 106 113 106c68 0 113 -46 113 -106c0 -61 -45 -107 -113 -107zM275 698c-30 0 -47 -20 -47 -45c0 -26 17 -46 47 -46c32 0 48 20 48 46c0 25 -16 45 -48 45zM411 500h87v-500h-87v72c-37 -59 -92 -85 -162 -85
c-117 0 -194 78 -194 206v307h87v-302c0 -82 47 -128 124 -128c80 0 145 47 145 165v265z" />
    <glyph glyph-name="v" unicode="v" horiz-adv-x="518" 
d="M416 500h94l-200 -500h-102l-200 500h94l157 -407z" />
    <glyph glyph-name="w" unicode="w" horiz-adv-x="770" 
d="M655 500h91l-155 -500h-89l-117 370l-117 -370h-89l-155 500h91l110 -380l118 380h84l118 -381z" />
    <glyph glyph-name="wacute" unicode="&#x1e83;" horiz-adv-x="770" 
d="M510 700l-101 -132h-84l80 132h105zM655 500h91l-155 -500h-89l-117 370l-117 -370h-89l-155 500h91l110 -380l118 380h84l118 -381z" />
    <glyph glyph-name="wcircumflex" unicode="&#x175;" horiz-adv-x="770" 
d="M384 646l-61 -81h-93l106 135h96l106 -135h-93zM655 500h91l-155 -500h-89l-117 370l-117 -370h-89l-155 500h91l110 -380l118 380h84l118 -381z" />
    <glyph glyph-name="wdieresis" unicode="&#x1e85;" horiz-adv-x="770" 
d="M290 566c-29 0 -53 24 -53 53s24 52 53 52s52 -23 52 -52s-23 -53 -52 -53zM480 566c-29 0 -53 24 -53 53s24 52 53 52s52 -23 52 -52s-23 -53 -52 -53zM655 500h91l-155 -500h-89l-117 370l-117 -370h-89l-155 500h91l110 -380l118 380h84l118 -381z" />
    <glyph glyph-name="wgrave" unicode="&#x1e81;" horiz-adv-x="770" 
d="M452 568h-84l-101 132h105zM655 500h91l-155 -500h-89l-117 370l-117 -370h-89l-155 500h91l110 -380l118 380h84l118 -381z" />
    <glyph glyph-name="x" unicode="x" horiz-adv-x="515" 
d="M500 0h-102l-140 189l-141 -189h-102l192 257l-181 243h103l129 -174l129 174h102l-180 -242z" />
    <glyph glyph-name="y" unicode="y" horiz-adv-x="515" 
d="M415 500h93l-204 -531c-42 -112 -120 -176 -222 -169v81c67 -5 109 36 135 102l9 19l-218 498h93l170 -392z" />
    <glyph glyph-name="yacute" unicode="&#xfd;" horiz-adv-x="515" 
d="M381 700l-101 -132h-84l80 132h105zM415 500h93l-204 -531c-42 -112 -120 -176 -222 -169v81c67 -5 109 36 135 102l9 19l-218 498h93l170 -392z" />
    <glyph glyph-name="ycircumflex" unicode="&#x177;" horiz-adv-x="515" 
d="M255 646l-61 -81h-93l106 135h96l106 -135h-93zM415 500h93l-204 -531c-42 -112 -120 -176 -222 -169v81c67 -5 109 36 135 102l9 19l-218 498h93l170 -392z" />
    <glyph glyph-name="ydieresis" unicode="&#xff;" horiz-adv-x="515" 
d="M161 566c-29 0 -53 24 -53 53s24 52 53 52s52 -23 52 -52s-23 -53 -52 -53zM351 566c-29 0 -53 24 -53 53s24 52 53 52s52 -23 52 -52s-23 -53 -52 -53zM415 500h93l-204 -531c-42 -112 -120 -176 -222 -169v81c67 -5 109 36 135 102l9 19l-218 498h93l170 -392z" />
    <glyph glyph-name="ygrave" unicode="&#x1ef3;" horiz-adv-x="515" 
d="M323 568h-84l-101 132h105zM415 500h93l-204 -531c-42 -112 -120 -176 -222 -169v81c67 -5 109 36 135 102l9 19l-218 498h93l170 -392z" />
    <glyph glyph-name="z" unicode="z" horiz-adv-x="471" 
d="M167 83h266v-83h-385v58l255 359h-245v83h365v-58z" />
    <glyph glyph-name="zacute" unicode="&#x17a;" horiz-adv-x="471" 
d="M367 700l-101 -132h-84l80 132h105zM167 83h266v-83h-385v58l255 359h-245v83h365v-58z" />
    <glyph glyph-name="zcaron" unicode="&#x17e;" horiz-adv-x="471" 
d="M193 565l-106 135h93l61 -81l61 81h93l-106 -135h-96zM167 83h266v-83h-385v58l255 359h-245v83h365v-58z" />
    <glyph glyph-name="zdotaccent" unicode="&#x17c;" horiz-adv-x="471" 
d="M242 564c-35 0 -63 28 -63 62c0 35 28 63 63 63c34 0 62 -28 62 -63c0 -34 -28 -62 -62 -62zM167 83h266v-83h-385v58l255 359h-245v83h365v-58z" />
    <glyph glyph-name="f_f_j" horiz-adv-x="802" 
d="M736 500v-530c0 -129 -67 -192 -193 -183v84c72 -6 106 21 106 99v446h-185v-416h-87v416h-186v-416h-87v416h-80v84h80v15c0 133 76 208 219 198v-84c-87 7 -132 -27 -132 -114v-15h186v25c0 133 75 198 218 198c33 0 66 -5 103 -13v-79c-37 5 -70 8 -103 8
c-87 0 -131 -27 -131 -114v-25h272z" />
    <glyph glyph-name="f_j" horiz-adv-x="530" 
d="M463 500v-530c0 -129 -66 -192 -192 -183v84c71 -6 105 21 105 99v446h-185v-416h-87v416h-80v84h80v15c0 133 76 198 219 198c32 0 65 -5 103 -13v-79c-38 5 -71 8 -103 8c-87 0 -132 -27 -132 -114v-15h272z" />
    <glyph glyph-name="uni0410" unicode="&#x410;" horiz-adv-x="643" 
d="M536 0l-57 157h-315l-57 -157h-99l261 700h105l261 -700h-99zM196 244h251l-126 345z" />
    <glyph glyph-name="uni0411" unicode="&#x411;" horiz-adv-x="585" 
d="M338 425c122 0 217 -93 217 -212c0 -121 -95 -213 -217 -213h-263v700h420v-88h-327v-187h170zM338 87c68 0 125 53 125 126c0 72 -57 125 -125 125h-170v-251h170z" />
    <glyph glyph-name="uni0412" unicode="&#x412;" horiz-adv-x="615" 
d="M475 363c63 -30 105 -89 105 -165c0 -112 -90 -198 -203 -198h-302v700h280c109 0 196 -83 196 -191c0 -63 -30 -114 -76 -146zM355 613h-187v-214h187c58 0 104 47 104 107c0 59 -46 107 -104 107zM377 87c62 0 111 50 111 114c0 63 -49 113 -111 113h-209v-227h209z
" />
    <glyph glyph-name="uni0413" unicode="&#x413;" horiz-adv-x="485" 
d="M468 700v-88h-300v-612h-93v700h393z" />
    <glyph glyph-name="uni0403" unicode="&#x403;" horiz-adv-x="485" 
d="M399 899l-101 -132h-84l80 132h105zM468 700v-88h-300v-612h-93v700h393z" />
    <glyph glyph-name="uni0490" unicode="&#x490;" horiz-adv-x="485" 
d="M375 820h93v-208h-300v-612h-93v700h300v120z" />
    <glyph glyph-name="uni0414" unicode="&#x414;" horiz-adv-x="695" 
d="M588 88h75v-222h-93v134h-462v-134h-93v222h61c37 46 65 114 65 246v366h447v-612zM181 88h314v525h-261v-281c0 -128 -25 -199 -53 -244z" />
    <glyph glyph-name="uni0415" unicode="&#x415;" horiz-adv-x="530" 
d="M168 88h325v-88h-418v700h413v-88h-320v-215h295v-87h-295v-222z" />
    <glyph glyph-name="uni0401" unicode="&#x401;" horiz-adv-x="530" 
d="M187 766c-29 0 -53 24 -53 53s24 52 53 52s52 -23 52 -52s-23 -53 -52 -53zM377 766c-29 0 -53 24 -53 53s24 52 53 52s52 -23 52 -52s-23 -53 -52 -53zM168 88h325v-88h-418v700h413v-88h-320v-215h295v-87h-295v-222z" />
    <glyph glyph-name="uni0416" unicode="&#x416;" horiz-adv-x="868" 
d="M851 0h-106l-265 336v-336h-92v336l-265 -336h-105l280 358l-270 342h105l255 -321v321h92v-321l255 321h106l-271 -342z" />
    <glyph glyph-name="uni0417" unicode="&#x417;" horiz-adv-x="564" 
d="M415 362c72 -30 114 -91 114 -171c0 -118 -96 -204 -246 -204c-144 0 -219 76 -249 161l79 45c15 -58 59 -118 170 -118c100 0 153 49 153 119s-50 120 -142 120h-82v85h59c87 0 140 47 140 114c0 65 -48 113 -134 113c-91 0 -135 -50 -155 -103l-78 45
c35 80 106 145 233 145c136 0 226 -84 226 -198c0 -67 -33 -120 -88 -153z" />
    <glyph glyph-name="uni0418" unicode="&#x418;" horiz-adv-x="678" 
d="M510 0v522l-360 -522h-75v700h93v-523l360 523h75v-700h-93z" />
    <glyph glyph-name="uni0419" unicode="&#x419;" horiz-adv-x="678" 
d="M204 775v76h270v-76h-270zM510 0v522l-360 -522h-75v700h93v-523l360 523h75v-700h-93z" />
    <glyph glyph-name="uni041A" unicode="&#x41a;" horiz-adv-x="592" 
d="M584 0h-114l-302 336v-336h-93v700h93v-316l292 316h114l-309 -340z" />
    <glyph glyph-name="uni040C" unicode="&#x40c;" horiz-adv-x="592" 
d="M419 899l-101 -132h-84l80 132h105zM584 0h-114l-302 336v-336h-93v700h93v-316l292 316h114l-309 -340z" />
    <glyph glyph-name="uni041B" unicode="&#x41b;" horiz-adv-x="689" 
d="M14 0v84c87 -12 138 34 138 219v397h462v-700h-93v612h-276v-309c0 -258 -101 -315 -231 -303z" />
    <glyph glyph-name="uni041C" unicode="&#x41c;" horiz-adv-x="805" 
d="M730 700v-700h-92v547l-229 -381h-12l-229 380v-546h-93v700h105l223 -370l222 370h105z" />
    <glyph glyph-name="uni041D" unicode="&#x41d;" horiz-adv-x="675" 
d="M508 700h92v-700h-92v315h-340v-315h-93v700h93v-297h340v297z" />
    <glyph glyph-name="uni041E" unicode="&#x41e;" horiz-adv-x="800" 
d="M400 -13c-203 0 -362 162 -362 363c0 202 159 363 362 363s363 -161 363 -363c0 -201 -160 -363 -363 -363zM400 78c153 0 270 119 270 272c0 154 -117 273 -270 273s-270 -119 -270 -273c0 -153 117 -272 270 -272z" />
    <glyph glyph-name="uni041F" unicode="&#x41f;" horiz-adv-x="658" 
d="M583 700v-700h-93v612h-322v-612h-93v700h508z" />
    <glyph glyph-name="uni0420" unicode="&#x420;" horiz-adv-x="590" 
d="M329 700c129 0 226 -97 226 -225c0 -127 -97 -225 -226 -225h-161v-250h-93v700h254zM329 337c77 0 134 59 134 138c0 80 -57 138 -134 138h-161v-276h161z" />
    <glyph glyph-name="uni0421" unicode="&#x421;" horiz-adv-x="739" 
d="M404 -13c-214 0 -366 162 -366 363c0 202 152 363 366 363c129 0 243 -67 302 -170l-81 -47c-40 77 -125 127 -221 127c-164 0 -274 -119 -274 -273c0 -153 110 -272 274 -272c96 0 181 50 221 126l81 -46c-58 -103 -172 -171 -302 -171z" />
    <glyph glyph-name="uni0422" unicode="&#x422;" horiz-adv-x="540" 
d="M523 700v-88h-207v-612h-92v612h-206v88h505z" />
    <glyph glyph-name="uni0423" unicode="&#x423;" horiz-adv-x="580" 
d="M476 700h94l-225 -534c-51 -121 -128 -173 -241 -166v86c78 -8 123 23 154 96l7 16l-237 502h94l186 -400z" />
    <glyph glyph-name="uni040E" unicode="&#x40e;" horiz-adv-x="580" 
d="M430 850v-76h-270v76h270zM476 700h94l-225 -534c-51 -121 -128 -173 -241 -166v86c78 -8 123 23 154 96l7 16l-237 502h94l186 -400z" />
    <glyph glyph-name="uni0424" unicode="&#x424;" horiz-adv-x="809" 
d="M782 350c0 -167 -137 -263 -332 -276v-79h-91v79c-195 13 -331 109 -331 276s136 263 331 276v79h91v-79c195 -13 332 -109 332 -276zM450 159c146 10 239 71 239 191s-93 181 -239 191v-382zM120 350c0 -120 93 -180 239 -190v381c-146 -10 -239 -71 -239 -191z" />
    <glyph glyph-name="uni0425" unicode="&#x425;" horiz-adv-x="590" 
d="M573 0h-106l-172 276l-172 -276h-105l225 360l-212 340h105l159 -255l159 255h105l-211 -339z" />
    <glyph glyph-name="uni0427" unicode="&#x427;" horiz-adv-x="628" 
d="M460 700h93v-700h-93v282c-57 -27 -110 -39 -172 -39c-137 0 -228 84 -228 207v250h93v-244c0 -75 49 -125 136 -125c63 0 115 12 171 39v330z" />
    <glyph glyph-name="uni0426" unicode="&#x426;" horiz-adv-x="690" 
d="M583 88h75v-222h-93v134h-490v700h93v-612h322v612h93v-612z" />
    <glyph glyph-name="uni0428" unicode="&#x428;" horiz-adv-x="948" 
d="M780 700h93v-700h-798v700h93v-612h260v612h92v-612h260v612z" />
    <glyph glyph-name="uni0429" unicode="&#x429;" horiz-adv-x="980" 
d="M873 88h75v-222h-93v134h-780v700h93v-612h260v612h92v-612h260v612h93v-612z" />
    <glyph glyph-name="uni040F" unicode="&#x40f;" horiz-adv-x="658" 
d="M490 700h93v-700h-208v-134h-92v134h-208v700h93v-612h322v612z" />
    <glyph glyph-name="uni042C" unicode="&#x42c;" horiz-adv-x="590" 
d="M329 450c129 0 226 -98 226 -225c0 -128 -97 -225 -226 -225h-254v700h93v-250h161zM329 87c77 0 134 58 134 138c0 79 -57 138 -134 138h-161v-276h161z" />
    <glyph glyph-name="uni042A" unicode="&#x42a;" horiz-adv-x="698" 
d="M183 0v612h-183v88h275v-250h161c129 0 227 -98 227 -225c0 -128 -98 -225 -227 -225h-253zM275 87h161c78 0 134 58 134 138s-56 138 -134 138h-161v-276z" />
    <glyph glyph-name="uni042B" unicode="&#x42b;" horiz-adv-x="794" 
d="M75 0v700h93v-250h161c129 0 226 -98 226 -225c0 -128 -97 -225 -226 -225h-254zM626 0v700h93v-700h-93zM168 87h161c77 0 134 58 134 138s-57 138 -134 138h-161v-276z" />
    <glyph glyph-name="uni0409" unicode="&#x409;" horiz-adv-x="984" 
d="M730 413c122 0 219 -87 219 -207s-97 -206 -219 -206h-234v612h-251v-309c0 -258 -101 -316 -231 -304v84c87 -11 138 35 138 220v397h437v-287h141zM730 87c70 0 126 47 126 119s-56 120 -126 120h-141v-239h141z" />
    <glyph glyph-name="uni040A" unicode="&#x40a;" horiz-adv-x="973" 
d="M719 413c121 0 219 -87 219 -207s-98 -206 -219 -206h-234v326h-317v-326h-93v700h93v-287h317v287h93v-287h141zM719 87c70 0 126 47 126 119s-56 120 -126 120h-141v-239h141z" />
    <glyph glyph-name="uni0405" unicode="&#x405;" horiz-adv-x="578" 
d="M301 -13c-133 0 -228 67 -265 172l80 46c25 -77 85 -127 187 -127c99 0 148 45 148 108c0 72 -62 96 -165 128c-112 36 -220 71 -220 201c0 126 103 198 220 198c115 0 198 -65 237 -153l-78 -45c-25 60 -74 108 -159 108c-75 0 -127 -40 -127 -104
c0 -65 49 -89 147 -120c122 -40 237 -76 237 -211c0 -123 -99 -201 -242 -201z" />
    <glyph glyph-name="uni0404" unicode="&#x404;" horiz-adv-x="735" 
d="M400 78c97 0 182 50 221 126l81 -46c-57 -103 -172 -171 -302 -171c-214 0 -362 162 -362 363c0 202 148 363 362 363c129 0 244 -67 302 -170l-81 -47c-40 77 -124 127 -221 127c-148 0 -249 -97 -267 -229h360v-87h-360c18 -132 119 -229 267 -229z" />
    <glyph glyph-name="uni042D" unicode="&#x42d;" horiz-adv-x="735" 
d="M335 713c214 0 362 -161 362 -363c0 -201 -148 -363 -362 -363c-130 0 -245 68 -302 171l81 46c39 -76 124 -126 221 -126c148 0 249 97 267 229h-360v87h360c-18 132 -119 229 -267 229c-97 0 -181 -50 -221 -127l-81 47c58 103 173 170 302 170z" />
    <glyph glyph-name="uni0406" unicode="&#x406;" horiz-adv-x="243" 
d="M75 700h93v-700h-93v700z" />
    <glyph glyph-name="uni0407" unicode="&#x407;" horiz-adv-x="243" 
d="M26 766c-29 0 -53 24 -53 53s24 52 53 52s52 -23 52 -52s-23 -53 -52 -53zM216 766c-29 0 -53 24 -53 53s24 52 53 52s52 -23 52 -52s-23 -53 -52 -53zM75 700h93v-700h-93v700z" />
    <glyph glyph-name="uni0408" unicode="&#x408;" horiz-adv-x="558" 
d="M257 -13c-99 0 -182 42 -219 125l79 46c22 -56 72 -80 140 -80c86 0 143 40 143 127v495h92v-495c0 -146 -107 -218 -235 -218z" />
    <glyph glyph-name="uni040B" unicode="&#x40b;" horiz-adv-x="705" 
d="M451 470c109 0 189 -63 189 -192v-278h-93v274c0 80 -42 112 -105 112c-53 0 -97 -10 -143 -28v-358h-93v612h-188v88h497v-88h-216v-172c48 20 95 30 152 30z" />
    <glyph glyph-name="uni042E" unicode="&#x42e;" horiz-adv-x="1045" 
d="M645 713c203 0 363 -161 363 -363c0 -201 -160 -363 -363 -363c-191 0 -340 144 -357 329h-120v-316h-93v700h93v-296h123c25 176 169 309 354 309zM645 78c153 0 270 119 270 272c0 154 -117 273 -270 273s-270 -118 -270 -273c0 -153 117 -272 270 -272z" />
    <glyph glyph-name="uni042F" unicode="&#x42f;" horiz-adv-x="621" 
d="M546 700v-700h-92v268h-139l-181 -268h-105l186 274c-95 23 -166 109 -166 209c0 120 97 217 217 217h280zM266 352h188v261h-188c-68 0 -125 -58 -125 -130s57 -131 125 -131z" />
    <glyph glyph-name="uni0402" unicode="&#x402;" horiz-adv-x="700" 
d="M451 470c109 0 189 -63 189 -192v-104c0 -129 -67 -192 -193 -183v86c72 -7 100 21 100 97v100c0 80 -42 112 -105 112c-53 0 -97 -10 -143 -28v-358h-93v612h-188v88h497v-88h-216v-172c48 20 95 30 152 30z" />
    <glyph glyph-name="uni0414.loclBGR" horiz-adv-x="710" 
d="M618 88h70v-222h-93v134h-480v-134h-92v222h69l211 612h105zM189 88h332l-166 502z" />
    <glyph glyph-name="uni041B.loclBGR" horiz-adv-x="621" 
d="M258 700h105l251 -700h-101l-202 584l-203 -584h-100z" />
    <glyph glyph-name="uni0424.loclBGR" horiz-adv-x="849" 
d="M812 350c0 -205 -138 -343 -342 -360v-90h-90v90c-204 17 -342 155 -342 360s138 343 342 360v90h90v-90c204 -17 342 -155 342 -360zM130 350c0 -157 95 -259 250 -275v551c-155 -17 -250 -119 -250 -276zM470 75c155 16 249 118 249 275s-94 259 -249 276v-551z" />
    <glyph glyph-name="uni0414.ss01" horiz-adv-x="695" 
d="M588 88h75v-88h-648v88h61c37 46 65 114 65 246v366h447v-612zM181 88h314v525h-261v-281c0 -128 -25 -199 -53 -244z" />
    <glyph glyph-name="uni0426.ss01" horiz-adv-x="690" 
d="M583 88h75v-88h-583v700h93v-612h322v612h93v-612z" />
    <glyph glyph-name="uni0429.ss01" horiz-adv-x="980" 
d="M873 88h75v-88h-873v700h93v-612h260v612h92v-612h260v612h93v-612z" />
    <glyph glyph-name="uni0414.loclBGR.ss01" horiz-adv-x="710" 
d="M618 88h70v-88h-665v88h69l211 612h105zM189 88h332l-166 502z" />
    <glyph glyph-name="uni0430" unicode="&#x430;" 
d="M480 500h87v-500h-87v86c-40 -61 -104 -99 -189 -99c-139 0 -253 115 -253 263s114 263 253 263c85 0 149 -38 189 -99v86zM302 71c101 0 178 77 178 179s-77 179 -178 179c-100 0 -177 -77 -177 -179s77 -179 177 -179z" />
    <glyph glyph-name="uni0431" unicode="&#x431;" horiz-adv-x="567" 
d="M293 -13c-147 0 -255 107 -255 261c0 161 30 244 191 322c105 51 180 65 196 146l70 -40c-17 -96 -110 -126 -210 -168c-92 -39 -127 -74 -145 -135c46 58 120 78 176 78c123 0 225 -92 225 -229c0 -135 -103 -235 -248 -235zM293 71c94 0 161 64 161 151
c0 88 -63 152 -158 152c-78 0 -167 -53 -167 -147c0 -92 72 -156 164 -156z" />
    <glyph glyph-name="uni0432" unicode="&#x432;" horiz-adv-x="504" 
d="M399 257c50 -21 77 -62 77 -116c0 -79 -53 -141 -160 -141h-250v500h230c103 0 157 -58 157 -136c0 -47 -18 -84 -54 -107zM292 422h-141v-131h141c50 0 76 23 76 67c0 40 -26 64 -76 64zM311 79c52 0 79 26 79 69c0 41 -28 66 -79 66h-160v-135h160z" />
    <glyph glyph-name="uni0433" unicode="&#x433;" horiz-adv-x="404" 
d="M394 500v-84h-241v-416h-87v500h328z" />
    <glyph glyph-name="uni0453" unicode="&#x453;" horiz-adv-x="404" 
d="M334 700l-101 -132h-84l80 132h105zM394 500v-84h-241v-416h-87v500h328z" />
    <glyph glyph-name="uni0491" unicode="&#x491;" horiz-adv-x="404" 
d="M308 603h86v-187h-241v-416h-87v500h242v103z" />
    <glyph glyph-name="uni0434" unicode="&#x434;" horiz-adv-x="593" 
d="M496 83h69v-217h-86v134h-375v-134h-86v217h61c30 41 48 90 48 185v232h369v-417zM178 83h232v336h-197v-151c0 -80 -12 -137 -35 -185z" />
    <glyph glyph-name="uni0435" unicode="&#x435;" horiz-adv-x="583" 
d="M127 210c17 -90 88 -141 181 -141c69 0 119 32 144 73l74 -42c-44 -68 -120 -113 -220 -113c-161 0 -268 113 -268 263c0 148 106 263 262 263c151 0 249 -124 249 -264c0 -13 -1 -26 -3 -39h-419zM300 431c-94 0 -159 -58 -173 -145h334c-15 99 -86 145 -161 145z" />
    <glyph glyph-name="uni0451" unicode="&#x451;" horiz-adv-x="583" 
d="M199 567c-29 0 -53 24 -53 53s24 52 53 52s52 -23 52 -52s-23 -53 -52 -53zM389 567c-29 0 -53 24 -53 53s24 52 53 52s52 -23 52 -52s-23 -53 -52 -53zM127 210c17 -90 88 -141 181 -141c69 0 119 32 144 73l74 -42c-44 -68 -120 -113 -220 -113
c-161 0 -268 113 -268 263c0 148 106 263 262 263c151 0 249 -124 249 -264c0 -13 -1 -26 -3 -39h-419zM300 431c-94 0 -159 -58 -173 -145h334c-15 99 -86 145 -161 145z" />
    <glyph glyph-name="uni0436" unicode="&#x436;" horiz-adv-x="698" 
d="M681 0h-102l-187 237v-237h-86v237l-187 -237h-101l209 258l-199 242h101l177 -221v221h86v-221l177 221h102l-200 -242z" />
    <glyph glyph-name="uni0437" unicode="&#x437;" horiz-adv-x="447" 
d="M336 256c53 -22 83 -65 83 -119c0 -79 -63 -150 -192 -150c-111 0 -172 52 -201 120l73 43c17 -48 56 -82 129 -82c69 0 105 33 105 77c0 40 -31 68 -83 68h-73v79h54c51 0 80 26 80 69c0 41 -34 72 -92 72c-53 0 -94 -23 -114 -71l-71 41c32 67 94 110 185 110
c113 0 177 -68 177 -145c0 -48 -20 -88 -60 -112z" />
    <glyph glyph-name="uni0438" unicode="&#x438;" horiz-adv-x="565" 
d="M429 500h70v-500h-86v351l-277 -351h-70v500h86v-351z" />
    <glyph glyph-name="uni0439" unicode="&#x439;" horiz-adv-x="565" 
d="M148 575v76h270v-76h-270zM429 500h70v-500h-86v351l-277 -351h-70v500h86v-351z" />
    <glyph glyph-name="uni043A" unicode="&#x43a;" horiz-adv-x="504" 
d="M489 0h-108l-228 237v-237h-87v500h87v-221l216 221h112l-239 -242z" />
    <glyph glyph-name="uni045C" unicode="&#x45c;" horiz-adv-x="504" 
d="M379 700l-101 -132h-84l80 132h105zM489 0h-108l-228 237v-237h-87v500h87v-221l216 221h112l-239 -242z" />
    <glyph glyph-name="uni043B" unicode="&#x43b;" horiz-adv-x="549" 
d="M483 500v-500h-87v416h-197v-204c0 -172 -77 -222 -189 -212v82c65 -9 102 21 102 132v286h371z" />
    <glyph glyph-name="uni043C" unicode="&#x43c;" 
d="M566 500v-500h-85v363l-159 -256h-11l-159 256v-363h-86v500h93l157 -253l157 253h93z" />
    <glyph glyph-name="uni043D" unicode="&#x43d;" horiz-adv-x="565" 
d="M412 500h87v-500h-87v209h-259v-209h-87v500h87v-208h259v208z" />
    <glyph glyph-name="uni043E" unicode="&#x43e;" horiz-adv-x="602" 
d="M301 -13c-146 0 -263 115 -263 263s117 263 263 263s264 -115 264 -263s-118 -263 -264 -263zM301 72c100 0 177 77 177 178s-77 178 -177 178c-99 0 -176 -77 -176 -178s77 -178 176 -178z" />
    <glyph glyph-name="uni043F" unicode="&#x43f;" horiz-adv-x="565" 
d="M499 500v-500h-87v417h-259v-417h-87v500h433z" />
    <glyph glyph-name="uni0440" unicode="&#x440;" 
d="M342 513c139 0 253 -115 253 -263s-114 -263 -253 -263c-85 0 -149 38 -189 99v-286h-87v700h87v-86c40 61 104 99 189 99zM331 71c100 0 177 77 177 179s-77 179 -177 179c-101 0 -178 -77 -178 -179s77 -179 178 -179z" />
    <glyph glyph-name="uni0441" unicode="&#x441;" horiz-adv-x="547" 
d="M301 -13c-151 0 -263 115 -263 263s112 263 263 263c99 0 183 -52 221 -131l-73 -42c-25 53 -81 88 -148 88c-100 0 -176 -77 -176 -178c0 -100 76 -177 176 -177c68 0 123 35 151 87l74 -43c-42 -78 -127 -130 -225 -130z" />
    <glyph glyph-name="uni0442" unicode="&#x442;" horiz-adv-x="448" 
d="M438 500v-84h-170v-416h-87v416h-171v84h428z" />
    <glyph glyph-name="uni0443" unicode="&#x443;" horiz-adv-x="515" 
d="M415 500h93l-204 -531c-42 -112 -122 -176 -222 -169v81c67 -5 109 35 135 100l8 18l-217 501h92l171 -392z" />
    <glyph glyph-name="uni045E" unicode="&#x45e;" horiz-adv-x="515" 
d="M391 651v-76h-270v76h270zM415 500h93l-204 -531c-42 -112 -122 -176 -222 -169v81c67 -5 109 35 135 100l8 18l-217 501h92l171 -392z" />
    <glyph glyph-name="uni0444" unicode="&#x444;" horiz-adv-x="675" 
d="M638 250c0 -136 -99 -243 -257 -260v-190h-86v190c-158 17 -257 124 -257 260s99 243 257 260v190h86v-190c158 -17 257 -124 257 -260zM124 250c0 -90 62 -161 171 -176v352c-109 -14 -171 -85 -171 -176zM381 74c108 15 170 86 170 176c0 91 -62 161 -170 176v-352z
" />
    <glyph glyph-name="uni0445" unicode="&#x445;" horiz-adv-x="515" 
d="M500 0h-102l-140 189l-141 -189h-102l192 257l-181 243h103l129 -174l129 174h102l-180 -242z" />
    <glyph glyph-name="uni0447" unicode="&#x447;" horiz-adv-x="534" 
d="M381 500h87v-500h-87v180c-39 -17 -86 -26 -135 -26c-125 0 -201 59 -201 180v166h87v-161c0 -77 45 -104 120 -104c46 0 91 9 129 26v239z" />
    <glyph glyph-name="uni0446" unicode="&#x446;" horiz-adv-x="595" 
d="M486 83h82v-217h-86v134h-416v500h87v-417h246v417h87v-417z" />
    <glyph glyph-name="uni0448" unicode="&#x448;" horiz-adv-x="818" 
d="M664 500h87v-500h-685v500h87v-417h212v417h87v-417h212v417z" />
    <glyph glyph-name="uni0449" unicode="&#x449;" horiz-adv-x="843" 
d="M746 83h69v-217h-86v134h-663v500h87v-417h210v417h87v-417h209v417h87v-417z" />
    <glyph glyph-name="uni045F" unicode="&#x45f;" horiz-adv-x="565" 
d="M412 500h87v-500h-173v-134h-86v134h-174v500h87v-417h259v417z" />
    <glyph glyph-name="uni044C" unicode="&#x44c;" horiz-adv-x="479" 
d="M277 320c99 0 174 -65 174 -160s-75 -160 -174 -160h-211v500h87v-180h124zM277 81c48 0 88 30 88 79s-40 80 -88 80h-124v-159h124z" />
    <glyph glyph-name="uni044A" unicode="&#x44a;" horiz-adv-x="551" 
d="M350 320c98 0 174 -65 174 -160s-76 -160 -174 -160h-211v416h-139v84h226v-180h124zM350 81c48 0 88 30 88 79s-40 80 -88 80h-124v-159h124z" />
    <glyph glyph-name="uni044B" unicode="&#x44b;" horiz-adv-x="670" 
d="M277 320c99 0 174 -65 174 -160s-75 -160 -174 -160h-211v500h87v-180h124zM516 500h87v-500h-87v500zM277 81c48 0 88 30 88 79s-40 80 -88 80h-124v-159h124z" />
    <glyph glyph-name="uni0459" unicode="&#x459;" horiz-adv-x="781" 
d="M591 303c93 0 162 -56 162 -152c0 -95 -70 -151 -162 -151h-205v416h-187v-204c0 -172 -77 -222 -189 -214v82c65 -7 102 23 102 134v286h361v-197h118zM592 81c41 0 78 21 78 70c0 50 -37 71 -78 71h-119v-141h119z" />
    <glyph glyph-name="uni045A" unicode="&#x45a;" horiz-adv-x="789" 
d="M598 303c92 0 164 -56 164 -152c0 -95 -73 -151 -164 -151h-206v220h-241v-220h-87v500h87v-197h241v197h87v-197h119zM598 81c42 0 78 21 78 70c0 50 -36 71 -78 71h-119v-141h119z" />
    <glyph glyph-name="uni0455" unicode="&#x455;" horiz-adv-x="458" 
d="M141 365c0 -107 280 -44 280 -228c0 -93 -80 -150 -187 -150c-100 0 -170 48 -199 117l75 43c16 -48 62 -78 124 -78c53 0 99 19 99 68c0 107 -280 46 -280 227c0 88 76 149 177 149c82 0 148 -39 180 -104l-73 -41c-19 45 -63 64 -107 64c-45 0 -89 -22 -89 -67z" />
    <glyph glyph-name="uni0454" unicode="&#x454;" horiz-adv-x="538" 
d="M446 162l74 -43c-36 -80 -119 -132 -227 -132c-153 0 -256 112 -256 263s101 263 255 263c101 0 185 -51 225 -131l-75 -43c-25 54 -79 90 -151 90c-88 0 -148 -58 -163 -138h223v-82h-223c16 -80 77 -138 165 -138c79 0 133 38 153 91z" />
    <glyph glyph-name="uni044D" unicode="&#x44d;" horiz-adv-x="538" 
d="M246 513c154 0 255 -112 255 -263s-103 -263 -256 -263c-108 0 -191 52 -227 132l74 43c20 -53 74 -91 153 -91c88 0 149 58 165 138h-223v82h223c-15 80 -75 138 -163 138c-72 0 -126 -36 -151 -90l-75 43c40 80 124 131 225 131z" />
    <glyph glyph-name="uni0456" unicode="&#x456;" horiz-adv-x="220" 
d="M110 591c-33 0 -59 26 -59 58s26 59 59 59c32 0 58 -27 58 -59s-26 -58 -58 -58zM66 0v500h87v-500h-87z" />
    <glyph glyph-name="uni0457" unicode="&#x457;" horiz-adv-x="220" 
d="M15 566c-29 0 -53 24 -53 53s24 52 53 52s52 -23 52 -52s-23 -53 -52 -53zM205 566c-29 0 -53 24 -53 53s24 52 53 52s52 -23 52 -52s-23 -53 -52 -53zM66 0v500h87v-500h-87z" />
    <glyph glyph-name="uni0458" unicode="&#x458;" horiz-adv-x="241" 
d="M132 591c-33 0 -59 26 -59 58s26 59 59 59c32 0 58 -27 58 -59s-26 -58 -58 -58zM88 -30v530h87v-530c0 -129 -67 -192 -193 -183v84c72 -6 106 21 106 99z" />
    <glyph glyph-name="uni045B" unicode="&#x45b;" horiz-adv-x="573" 
d="M324 513c117 0 194 -78 194 -206v-307h-87v302c0 82 -47 128 -124 128c-80 0 -145 -47 -145 -165v-265h-87v569h-67v64h67v67h87v-67h143v-64h-143v-141c37 59 92 85 162 85z" />
    <glyph glyph-name="uni044E" unicode="&#x44e;" horiz-adv-x="804" 
d="M503 513c146 0 263 -115 263 -263s-117 -263 -263 -263c-132 0 -238 94 -257 222h-93v-209h-87v500h87v-208h93c19 127 125 221 257 221zM503 72c99 0 176 77 176 178s-77 178 -176 178c-100 0 -177 -77 -177 -178s77 -178 177 -178z" />
    <glyph glyph-name="uni044F" unicode="&#x44f;" horiz-adv-x="506" 
d="M440 500v-500h-86v180h-73l-140 -180h-106l146 185c-74 18 -126 78 -126 154c0 91 73 161 172 161h213zM230 258h124v161h-124c-48 0 -89 -30 -89 -81c0 -50 41 -80 89 -80z" />
    <glyph glyph-name="uni0452" unicode="&#x452;" horiz-adv-x="573" 
d="M324 513c117 0 194 -78 194 -206v-337c0 -129 -67 -192 -193 -183v84c72 -6 106 21 106 99v332c0 82 -47 128 -124 128c-80 0 -145 -47 -145 -165v-265h-87v569h-67v64h67v67h87v-67h143v-64h-143v-141c37 59 92 85 162 85z" />
    <glyph glyph-name="uni0432.loclBGR" horiz-adv-x="569" 
d="M406 403c78 -28 125 -97 125 -198c0 -137 -86 -218 -232 -218c-145 0 -233 92 -233 243v236c0 150 85 247 221 247c114 0 187 -69 187 -170c0 -50 -23 -98 -68 -140zM287 630c-83 0 -134 -65 -134 -164v-73l85 17c27 5 52 8 76 8c50 38 74 79 74 120c0 52 -37 92 -101 92
zM299 72c91 0 145 49 145 133c0 101 -82 149 -206 123l-85 -17v-81c0 -99 55 -158 146 -158z" />
    <glyph glyph-name="uni0433.loclBGR" horiz-adv-x="458" 
d="M353 151l75 -44c-29 -68 -99 -120 -199 -120c-107 0 -188 57 -188 150c0 184 276 121 276 228c0 45 -44 67 -86 67c-48 0 -91 -23 -110 -68l-73 42c32 64 98 107 183 107c98 0 174 -61 174 -149c0 -182 -276 -118 -276 -226c0 -50 47 -69 100 -69c61 0 107 34 124 82z
" />
    <glyph glyph-name="uni0434.loclBGR" 
d="M481 500h86v-479c0 -156 -125 -234 -255 -234c-112 0 -196 43 -237 122l76 43c23 -47 65 -84 163 -84c104 0 167 59 167 153v71c-40 -61 -104 -100 -188 -100c-142 0 -255 115 -255 261c0 145 113 260 255 260c84 0 148 -38 188 -99v86zM303 75c101 0 178 77 178 178
c0 100 -77 177 -178 177s-178 -77 -178 -177c0 -101 77 -178 178 -178z" />
    <glyph glyph-name="uni0436.loclBGR" horiz-adv-x="698" 
d="M681 0h-102l-187 235v-235h-86v235l-187 -235h-101l209 258l-199 242h101l177 -220v420h86v-420l177 220h102l-200 -242z" />
    <glyph glyph-name="uni0438.loclBGR" horiz-adv-x="564" 
d="M411 500h87v-500h-87v72c-37 -59 -92 -85 -162 -85c-117 0 -194 78 -194 206v307h87v-302c0 -82 47 -128 124 -128c80 0 145 47 145 165v265z" />
    <glyph glyph-name="uni0439.loclBGR" horiz-adv-x="564" 
d="M410 651v-76h-270v76h270zM411 500h87v-500h-87v72c-37 -59 -92 -85 -162 -85c-117 0 -194 78 -194 206v307h87v-302c0 -82 47 -128 124 -128c80 0 145 47 145 165v265z" />
    <glyph glyph-name="uni043A.loclBGR" horiz-adv-x="504" 
d="M489 0h-108l-228 237v-237h-87v700h87v-421l216 221h112l-239 -242z" />
    <glyph glyph-name="uni043B.loclBGR" horiz-adv-x="518" 
d="M510 0h-94l-157 407l-157 -407h-94l200 500h102z" />
    <glyph glyph-name="uni043F.loclBGR" horiz-adv-x="564" 
d="M315 513c117 0 194 -78 194 -206v-307h-87v302c0 82 -47 128 -124 128c-80 0 -145 -47 -145 -165v-265h-87v500h87v-72c37 59 92 85 162 85z" />
    <glyph glyph-name="uni0442.loclBGR" horiz-adv-x="849" 
d="M606 513c111 0 188 -77 188 -202v-311h-87v308c0 79 -44 122 -110 122c-70 0 -123 -44 -123 -152v-278h-87v308c0 79 -41 122 -106 122c-67 0 -128 -44 -128 -152v-278h-87v500h87v-67c36 56 88 80 149 80c68 0 118 -31 147 -85c35 57 92 85 157 85z" />
    <glyph glyph-name="uni0446.loclBGR" horiz-adv-x="601" 
d="M533 83h41v-217h-86v138c-36 9 -62 34 -72 70c-38 -60 -94 -87 -167 -87c-116 0 -193 79 -193 206v307h87v-301c0 -83 46 -129 123 -129c80 0 145 47 145 165v265h87v-382c0 -22 14 -35 35 -35z" />
    <glyph glyph-name="uni0448.loclBGR" horiz-adv-x="849" 
d="M696 500h87v-500h-87v67c-36 -56 -88 -80 -149 -80c-68 0 -118 31 -147 85c-35 -57 -92 -85 -157 -85c-111 0 -188 77 -188 202v311h87v-308c0 -79 44 -122 110 -122c70 0 123 44 123 152v278h87v-308c0 -79 41 -122 106 -122c67 0 128 44 128 152v278z" />
    <glyph glyph-name="uni0449.loclBGR" horiz-adv-x="886" 
d="M818 83h41v-217h-86v138c-34 9 -59 32 -71 66c-36 -58 -89 -83 -152 -83c-69 0 -120 31 -149 85c-35 -57 -92 -85 -158 -85c-111 0 -187 77 -187 202v311h87v-307c0 -80 44 -123 109 -123c70 0 124 44 124 152v278h87v-307c0 -80 40 -123 106 -123s127 44 127 152v278h87
v-382c0 -22 14 -35 35 -35z" />
    <glyph glyph-name="uni044C.loclBGR" horiz-adv-x="483" 
d="M258 346c126 0 198 -65 198 -174c0 -100 -80 -185 -200 -185c-126 0 -200 80 -200 187v326h86v-154h116zM256 71c68 0 114 51 114 101c0 58 -41 93 -112 93h-116v-91c0 -55 42 -103 114 -103z" />
    <glyph glyph-name="uni044A.loclBGR" horiz-adv-x="568" 
d="M341 346c126 0 198 -65 198 -174c0 -100 -80 -185 -200 -185c-126 0 -200 80 -200 187v243h-139v83h225v-154h116zM339 71c68 0 114 51 114 101c0 58 -41 93 -112 93h-116v-91c0 -55 42 -103 114 -103z" />
    <glyph glyph-name="uni044E.loclBGR" horiz-adv-x="804" 
d="M503 513c146 0 263 -115 263 -263s-117 -263 -263 -263c-132 0 -238 94 -257 222h-93v-209h-87v700h87v-408h93c19 127 125 221 257 221zM503 72c99 0 176 77 176 178s-77 178 -176 178c-100 0 -177 -77 -177 -178s77 -178 177 -178z" />
    <glyph glyph-name="uni0394" unicode="&#x394;" horiz-adv-x="638" 
d="M371 700l259 -700h-622l258 700h105zM138 87h362l-181 504z" />
    <glyph glyph-name="uni03A9" unicode="&#x3a9;" horiz-adv-x="795" 
d="M760 355c0 -112 -52 -208 -135 -267h123v-88h-275v88c114 32 195 135 195 262c0 154 -117 273 -270 273s-270 -119 -270 -273c0 -127 79 -230 194 -262v-88h-274v88h122c-83 59 -135 155 -135 267c0 199 159 358 363 358c203 0 362 -159 362 -358z" />
    <glyph glyph-name="pi" unicode="&#x3c0;" horiz-adv-x="655" 
d="M628 500v-83h-82v-417h-87v417h-259v-417h-87v417h-85v83h600z" />
    <glyph glyph-name="zero" unicode="0" horiz-adv-x="630" 
d="M315 -13c-173 0 -270 147 -270 363s97 363 270 363c174 0 270 -147 270 -363s-96 -363 -270 -363zM315 78c113 0 178 98 178 272s-65 273 -178 273s-177 -99 -177 -273s64 -272 177 -272z" />
    <glyph glyph-name="one" unicode="1" horiz-adv-x="356" 
d="M198 700h80v-700h-92v600l-149 -44l-23 80z" />
    <glyph glyph-name="two" unicode="2" horiz-adv-x="527" 
d="M36 0v76l247 252c55 55 99 111 99 170c0 82 -59 125 -124 125c-64 0 -114 -31 -144 -94l-78 46c45 93 130 138 221 138c109 0 218 -76 218 -214c0 -87 -56 -162 -125 -231l-179 -178h317v-90h-452z" />
    <glyph glyph-name="three" unicode="3" horiz-adv-x="535" 
d="M316 413c101 -19 182 -90 182 -206c0 -142 -114 -220 -240 -220c-103 0 -194 48 -230 142l78 46c21 -65 76 -97 152 -97c84 0 147 46 147 129c0 84 -63 130 -147 130h-24l-37 57l162 219h-311v87h420v-82z" />
    <glyph glyph-name="four" unicode="4" horiz-adv-x="580" 
d="M559 220v-87h-85v-133h-93v133h-357v87l251 480h100l-251 -480h257v198h93v-198h85z" />
    <glyph glyph-name="five" unicode="5" horiz-adv-x="543" 
d="M270 427c125 0 236 -77 236 -220c0 -142 -114 -220 -240 -220c-103 0 -197 50 -231 150l79 45c19 -69 76 -104 152 -104c85 0 148 46 148 129c0 84 -63 130 -146 130h-198l26 363h383v-87h-299l-12 -186h102z" />
    <glyph glyph-name="six" unicode="6" horiz-adv-x="538" 
d="M269 458c140 0 241 -96 241 -235s-101 -236 -241 -236c-141 0 -241 97 -241 236c0 54 15 102 42 140l225 337h106l-165 -244c11 1 22 2 33 2zM269 76c87 0 149 58 149 147c0 88 -62 146 -149 146c-88 0 -149 -57 -149 -146s61 -147 149 -147z" />
    <glyph glyph-name="seven" unicode="7" horiz-adv-x="490" 
d="M18 700h437v-83l-255 -617h-97l253 612h-338v88z" />
    <glyph glyph-name="eight" unicode="8" horiz-adv-x="555" 
d="M408 362c67 -34 109 -94 109 -170c0 -131 -103 -205 -240 -205c-136 0 -239 74 -239 205c0 76 42 136 109 170c-51 32 -86 84 -86 153c0 134 106 198 216 198c111 0 217 -64 217 -198c0 -69 -35 -121 -86 -153zM277 624c-65 0 -124 -33 -124 -111c0 -74 59 -112 124 -112
c66 0 124 38 124 112c0 78 -58 111 -124 111zM277 76c86 0 148 41 148 122c0 80 -62 121 -148 121c-85 0 -147 -41 -147 -121c0 -81 62 -122 147 -122z" />
    <glyph glyph-name="nine" unicode="9" horiz-adv-x="538" 
d="M510 478c0 -55 -15 -102 -43 -141h1l-226 -337h-105l166 245c-11 -1 -22 -2 -34 -2c-141 0 -241 96 -241 235s100 235 241 235s241 -96 241 -235zM120 478c0 -89 61 -147 149 -147s149 58 149 147s-61 146 -149 146s-149 -58 -149 -146z" />
    <glyph glyph-name="zero.sinf" horiz-adv-x="410" 
d="M205 -173c-111 0 -177 85 -177 213s66 213 177 213s177 -85 177 -213s-66 -213 -177 -213zM205 -97c62 0 99 47 99 137s-37 137 -99 137s-99 -47 -99 -137s37 -137 99 -137z" />
    <glyph glyph-name="one.sinf" horiz-adv-x="248" 
d="M125 240h67v-400h-77v319l-88 -26l-19 65z" />
    <glyph glyph-name="two.sinf" horiz-adv-x="344" 
d="M29 -160v57l162 153c26 24 39 53 39 77c0 32 -23 53 -61 53c-40 0 -64 -22 -79 -58l-64 36c25 59 74 95 143 95c83 0 139 -54 139 -124c0 -47 -24 -89 -64 -126l-101 -91h172v-72h-286z" />
    <glyph glyph-name="three.sinf" horiz-adv-x="347" 
d="M214 74c64 -13 102 -56 102 -116c0 -80 -59 -131 -149 -131c-73 0 -122 32 -147 86l65 37c15 -35 41 -51 82 -51c47 0 72 23 72 59s-29 60 -73 60h-9l-34 50l84 100h-172v72h263v-66z" />
    <glyph glyph-name="four.sinf" horiz-adv-x="355" 
d="M336 -18v-71h-47v-71h-76v71h-199v71l142 258h83l-140 -258h114v88h76v-88h47z" />
    <glyph glyph-name="five.sinf" horiz-adv-x="331" 
d="M169 90c84 0 142 -49 142 -133c0 -80 -56 -130 -144 -130c-74 0 -121 32 -146 87l65 36c15 -34 41 -52 80 -52c46 0 71 24 71 60c0 37 -25 63 -71 63h-124l15 219h237v-71h-172l-5 -79h52z" />
    <glyph glyph-name="six.sinf" horiz-adv-x="337" 
d="M168 108c88 0 150 -60 150 -140s-62 -141 -150 -141c-87 0 -149 61 -149 141c0 31 9 59 25 81l121 191h87l-89 -132h5zM168 -103c46 0 76 29 76 71s-30 70 -76 70c-45 0 -75 -28 -75 -70s30 -71 75 -71z" />
    <glyph glyph-name="seven.sinf" horiz-adv-x="296" 
d="M8 240h269v-61l-141 -339h-81l138 328h-185v72z" />
    <glyph glyph-name="eight.sinf" horiz-adv-x="340" 
d="M254 51c39 -21 63 -58 63 -104c0 -73 -58 -120 -147 -120s-147 47 -147 120c0 46 24 83 63 104c-30 18 -50 48 -50 86c0 73 61 116 134 116s134 -43 134 -116c0 -38 -20 -68 -50 -86zM170 184c-40 0 -62 -19 -62 -50c0 -32 22 -53 62 -53c39 0 62 21 62 53
c0 31 -23 50 -62 50zM170 -102c46 0 72 24 72 59c0 37 -29 59 -72 59c-46 0 -72 -22 -72 -59c0 -35 26 -59 72 -59z" />
    <glyph glyph-name="nine.sinf" horiz-adv-x="337" 
d="M318 112c0 -31 -9 -59 -25 -81l-121 -191h-87l89 132h-5c-88 0 -150 60 -150 140s62 141 150 141c87 0 149 -61 149 -141zM93 112c0 -42 30 -70 76 -70c45 0 75 28 75 70s-30 71 -75 71c-46 0 -76 -29 -76 -71z" />
    <glyph glyph-name="zero.tf" horiz-adv-x="573" 
d="M286 -13c-173 0 -270 147 -270 363s97 363 270 363c174 0 270 -147 270 -363s-96 -363 -270 -363zM286 78c114 0 178 98 178 272s-64 273 -178 273c-113 0 -177 -99 -177 -273s64 -272 177 -272z" />
    <glyph glyph-name="one.tf" horiz-adv-x="573" 
d="M346 88h200v-88h-510v88h218v512l-149 -44l-23 80l184 64h80v-612z" />
    <glyph glyph-name="two.tf" horiz-adv-x="573" 
d="M41 0v76l254 223c74 64 131 122 131 190c0 80 -53 134 -143 134c-71 0 -127 -40 -158 -109l-78 45c46 99 135 154 237 154c134 0 235 -87 235 -222c0 -97 -67 -175 -161 -253l-178 -148h353v-90h-492z" />
    <glyph glyph-name="three.tf" horiz-adv-x="573" 
d="M341 415c112 -18 195 -87 195 -206c0 -143 -112 -222 -256 -222c-120 0 -219 59 -255 160l78 46c21 -71 86 -115 175 -115c102 0 166 46 166 131c0 84 -64 131 -166 131h-22l-39 57l175 216h-344v87h458v-82z" />
    <glyph glyph-name="four.tf" horiz-adv-x="573" 
d="M554 220v-87h-85v-133h-93v133h-360v87l251 480h100l-251 -480h260v183h93v-183h85z" />
    <glyph glyph-name="five.tf" horiz-adv-x="573" 
d="M289 427c136 0 247 -77 247 -220c0 -142 -114 -220 -248 -220c-120 0 -220 59 -256 160l79 46c20 -71 86 -115 175 -115c95 0 158 46 158 129c0 84 -63 130 -158 130h-215l26 363h412v-87h-327l-13 -186h120z" />
    <glyph glyph-name="six.tf" horiz-adv-x="573" 
d="M279 460c159 0 260 -96 260 -236s-101 -237 -260 -237c-160 0 -260 97 -260 237c0 59 17 109 49 149l234 327h109l-174 -242c14 1 28 2 42 2zM279 76c106 0 167 58 167 148s-61 148 -167 148c-107 0 -168 -58 -168 -148s61 -148 168 -148z" />
    <glyph glyph-name="seven.tf" horiz-adv-x="573" 
d="M35 700h500v-83l-278 -617h-97l275 612h-400v88z" />
    <glyph glyph-name="eight.tf" horiz-adv-x="573" 
d="M431 362c70 -34 112 -96 112 -170c0 -130 -102 -205 -257 -205c-154 0 -256 75 -256 205c0 74 42 136 112 170c-53 33 -88 85 -88 153c0 131 104 198 232 198c129 0 233 -67 233 -198c0 -68 -35 -120 -88 -153zM286 624c-84 0 -140 -36 -140 -111c0 -71 56 -112 140 -112
c85 0 141 41 141 112c0 75 -56 111 -141 111zM286 76c106 0 165 45 165 122s-59 121 -165 121s-164 -44 -164 -121s58 -122 164 -122z" />
    <glyph glyph-name="nine.tf" horiz-adv-x="573" 
d="M554 476c0 -57 -17 -106 -47 -145l-237 -331h-108l173 242c-13 -1 -27 -2 -41 -2c-159 0 -260 96 -260 236c0 141 101 237 260 237s260 -96 260 -237zM126 476c0 -90 62 -147 168 -147s167 57 167 147c0 91 -61 148 -167 148s-168 -58 -168 -148z" />
    <glyph glyph-name="zero.dnom" horiz-adv-x="410" 
d="M205 -13c-111 0 -177 85 -177 213s66 213 177 213s177 -85 177 -213s-66 -213 -177 -213zM205 63c62 0 99 47 99 137s-37 137 -99 137s-99 -47 -99 -137s37 -137 99 -137z" />
    <glyph glyph-name="one.dnom" horiz-adv-x="254" 
d="M125 400h67v-400h-77v319l-88 -26l-19 65z" />
    <glyph glyph-name="two.dnom" horiz-adv-x="345" 
d="M29 0v57l162 153c26 24 39 53 39 77c0 32 -23 53 -61 53c-40 0 -64 -22 -79 -58l-64 36c25 59 74 95 143 95c83 0 139 -54 139 -124c0 -47 -24 -89 -64 -126l-101 -91h172v-72h-286z" />
    <glyph glyph-name="three.dnom" horiz-adv-x="351" 
d="M214 234c64 -13 102 -56 102 -116c0 -80 -59 -131 -149 -131c-73 0 -122 32 -147 86l65 37c15 -35 41 -51 82 -51c47 0 72 23 72 59s-29 60 -73 60h-9l-34 50l84 100h-172v72h263v-66z" />
    <glyph glyph-name="four.dnom" horiz-adv-x="355" 
d="M336 142v-71h-47v-71h-76v71h-199v71l142 258h83l-140 -258h114v88h76v-88h47z" />
    <glyph glyph-name="five.dnom" horiz-adv-x="339" 
d="M165 250c84 0 142 -49 142 -133c0 -80 -56 -130 -144 -130c-74 0 -121 32 -146 87l65 36c15 -34 41 -52 80 -52c46 0 71 24 71 60c0 37 -25 63 -71 63h-124l15 219h237v-71h-172l-5 -79h52z" />
    <glyph glyph-name="six.dnom" horiz-adv-x="337" 
d="M168 268c88 0 150 -60 150 -140s-62 -141 -150 -141c-87 0 -149 61 -149 141c0 31 9 59 25 81l121 191h87l-89 -132h5zM168 57c46 0 76 29 76 71s-30 70 -76 70c-45 0 -75 -28 -75 -70s30 -71 75 -71z" />
    <glyph glyph-name="seven.dnom" horiz-adv-x="296" 
d="M8 400h269v-61l-141 -339h-81l138 328h-185v72z" />
    <glyph glyph-name="eight.dnom" horiz-adv-x="340" 
d="M254 211c39 -21 63 -58 63 -104c0 -73 -58 -120 -147 -120s-147 47 -147 120c0 46 24 83 63 104c-30 18 -50 48 -50 86c0 73 61 116 134 116s134 -43 134 -116c0 -38 -20 -68 -50 -86zM170 344c-40 0 -62 -19 -62 -50c0 -32 22 -53 62 -53c39 0 62 21 62 53
c0 31 -23 50 -62 50zM170 58c46 0 72 24 72 59c0 37 -29 59 -72 59c-46 0 -72 -22 -72 -59c0 -35 26 -59 72 -59z" />
    <glyph glyph-name="nine.dnom" horiz-adv-x="337" 
d="M318 272c0 -31 -9 -59 -25 -81l-121 -191h-87l89 132h-5c-88 0 -150 60 -150 140s62 141 150 141c87 0 149 -61 149 -141zM93 272c0 -42 30 -70 76 -70c45 0 75 28 75 70s-30 71 -75 71c-46 0 -76 -29 -76 -71z" />
    <glyph glyph-name="zero.numr" horiz-adv-x="410" 
d="M205 287c-111 0 -177 85 -177 213s66 213 177 213s177 -85 177 -213s-66 -213 -177 -213zM205 363c62 0 99 47 99 137s-37 137 -99 137s-99 -47 -99 -137s37 -137 99 -137z" />
    <glyph glyph-name="one.numr" horiz-adv-x="254" 
d="M125 700h67v-400h-77v319l-88 -26l-19 65z" />
    <glyph glyph-name="two.numr" horiz-adv-x="345" 
d="M29 300v57l162 153c26 24 39 53 39 77c0 32 -23 53 -61 53c-40 0 -64 -22 -79 -58l-64 36c25 59 74 95 143 95c83 0 139 -54 139 -124c0 -47 -24 -89 -64 -126l-101 -91h172v-72h-286z" />
    <glyph glyph-name="three.numr" horiz-adv-x="351" 
d="M214 534c64 -13 102 -56 102 -116c0 -80 -59 -131 -149 -131c-73 0 -122 32 -147 86l65 37c15 -35 41 -51 82 -51c47 0 72 23 72 59s-29 60 -73 60h-9l-34 50l84 100h-172v72h263v-66z" />
    <glyph glyph-name="four.numr" horiz-adv-x="355" 
d="M336 442v-71h-47v-71h-76v71h-199v71l142 258h83l-140 -258h114v88h76v-88h47z" />
    <glyph glyph-name="five.numr" horiz-adv-x="339" 
d="M165 550c84 0 142 -49 142 -133c0 -80 -56 -130 -144 -130c-74 0 -121 32 -146 87l65 36c15 -34 41 -52 80 -52c46 0 71 24 71 60c0 37 -25 63 -71 63h-124l15 219h237v-71h-172l-5 -79h52z" />
    <glyph glyph-name="six.numr" horiz-adv-x="337" 
d="M168 568c88 0 150 -60 150 -140s-62 -141 -150 -141c-87 0 -149 61 -149 141c0 31 9 59 25 81l121 191h87l-89 -132h5zM168 357c46 0 76 29 76 71s-30 70 -76 70c-45 0 -75 -28 -75 -70s30 -71 75 -71z" />
    <glyph glyph-name="seven.numr" horiz-adv-x="296" 
d="M8 700h269v-61l-141 -339h-81l138 328h-185v72z" />
    <glyph glyph-name="eight.numr" horiz-adv-x="340" 
d="M254 511c39 -21 63 -58 63 -104c0 -73 -58 -120 -147 -120s-147 47 -147 120c0 46 24 83 63 104c-30 18 -50 48 -50 86c0 73 61 116 134 116s134 -43 134 -116c0 -38 -20 -68 -50 -86zM170 644c-40 0 -62 -19 -62 -50c0 -32 22 -53 62 -53c39 0 62 21 62 53
c0 31 -23 50 -62 50zM170 358c46 0 72 24 72 59c0 37 -29 59 -72 59c-46 0 -72 -22 -72 -59c0 -35 26 -59 72 -59z" />
    <glyph glyph-name="nine.numr" horiz-adv-x="337" 
d="M318 572c0 -31 -9 -59 -25 -81l-121 -191h-87l89 132h-5c-88 0 -150 60 -150 140s62 141 150 141c87 0 149 -61 149 -141zM93 572c0 -42 30 -70 76 -70c45 0 75 28 75 70s-30 71 -75 71c-46 0 -76 -29 -76 -71z" />
    <glyph glyph-name="zero.sups" horiz-adv-x="410" 
d="M205 447c-111 0 -177 85 -177 213s66 213 177 213s177 -85 177 -213s-66 -213 -177 -213zM205 523c62 0 99 47 99 137s-37 137 -99 137s-99 -47 -99 -137s37 -137 99 -137z" />
    <glyph glyph-name="one.sups" horiz-adv-x="254" 
d="M125 860h67v-400h-77v319l-88 -26l-19 65z" />
    <glyph glyph-name="two.sups" horiz-adv-x="345" 
d="M29 460v57l162 153c26 24 39 53 39 77c0 32 -23 53 -61 53c-40 0 -64 -22 -79 -58l-64 36c25 59 74 95 143 95c83 0 139 -54 139 -124c0 -47 -24 -89 -64 -126l-101 -91h172v-72h-286z" />
    <glyph glyph-name="three.sups" horiz-adv-x="351" 
d="M214 694c64 -13 102 -56 102 -116c0 -80 -59 -131 -149 -131c-73 0 -122 32 -147 86l65 37c15 -35 41 -51 82 -51c47 0 72 23 72 59s-29 60 -73 60h-9l-34 50l84 100h-172v72h263v-66z" />
    <glyph glyph-name="four.sups" horiz-adv-x="355" 
d="M336 602v-71h-47v-71h-76v71h-199v71l142 258h83l-140 -258h114v88h76v-88h47z" />
    <glyph glyph-name="five.sups" horiz-adv-x="339" 
d="M165 710c84 0 142 -49 142 -133c0 -80 -56 -130 -144 -130c-74 0 -121 32 -146 87l65 36c15 -34 41 -52 80 -52c46 0 71 24 71 60c0 37 -25 63 -71 63h-124l15 219h237v-71h-172l-5 -79h52z" />
    <glyph glyph-name="six.sups" horiz-adv-x="337" 
d="M168 728c88 0 150 -60 150 -140s-62 -141 -150 -141c-87 0 -149 61 -149 141c0 31 9 59 25 81l121 191h87l-89 -132h5zM168 517c46 0 76 29 76 71s-30 70 -76 70c-45 0 -75 -28 -75 -70s30 -71 75 -71z" />
    <glyph glyph-name="seven.sups" horiz-adv-x="296" 
d="M8 860h269v-61l-141 -339h-81l138 328h-185v72z" />
    <glyph glyph-name="eight.sups" horiz-adv-x="340" 
d="M254 671c39 -21 63 -58 63 -104c0 -73 -58 -120 -147 -120s-147 47 -147 120c0 46 24 83 63 104c-30 18 -50 48 -50 86c0 73 61 116 134 116s134 -43 134 -116c0 -38 -20 -68 -50 -86zM170 804c-40 0 -62 -19 -62 -50c0 -32 22 -53 62 -53c39 0 62 21 62 53
c0 31 -23 50 -62 50zM170 518c46 0 72 24 72 59c0 37 -29 59 -72 59c-46 0 -72 -22 -72 -59c0 -35 26 -59 72 -59z" />
    <glyph glyph-name="nine.sups" horiz-adv-x="337" 
d="M318 732c0 -31 -9 -59 -25 -81l-121 -191h-87l89 132h-5c-88 0 -150 60 -150 140s62 141 150 141c87 0 149 -61 149 -141zM93 732c0 -42 30 -70 76 -70c45 0 75 28 75 70s-30 71 -75 71c-46 0 -76 -29 -76 -71z" />
    <glyph glyph-name="fraction" unicode="&#x2044;" horiz-adv-x="210" 
d="M-60 0h-70l400 700h70z" />
    <glyph glyph-name="onehalf" unicode="&#xbd;" horiz-adv-x="809" 
d="M192 300h-77v319l-88 -26l-19 65l117 42h67v-400zM524 700h70l-400 -700h-70zM607 72h172v-72h-286v57l162 153c26 24 39 53 39 77c0 32 -23 53 -61 53c-40 0 -64 -22 -79 -58l-64 36c25 59 74 95 143 95c83 0 139 -54 139 -124c0 -47 -24 -89 -64 -126z" />
    <glyph glyph-name="onequarter" unicode="&#xbc;" horiz-adv-x="819" 
d="M192 300h-77v319l-88 -26l-19 65l117 42h67v-400zM524 700h70l-400 -700h-70zM800 142v-71h-47v-71h-76v71h-199v71l142 258h83l-140 -258h114v88h76v-88h47z" />
    <glyph glyph-name="threequarters" unicode="&#xbe;" horiz-adv-x="916" 
d="M316 418c0 -80 -59 -131 -149 -131c-73 0 -122 32 -147 86l65 37c15 -35 41 -51 82 -51c47 0 72 23 72 59s-29 60 -73 60h-9l-34 50l84 100h-172v72h263v-66l-84 -100c64 -13 102 -56 102 -116zM621 700h70l-400 -700h-70zM897 142v-71h-47v-71h-76v71h-199v71l142 258
h83l-140 -258h114v88h76v-88h47z" />
    <glyph glyph-name="oneeighth" unicode="&#x215b;" horiz-adv-x="804" 
d="M192 300h-77v319l-88 -26l-19 65l117 42h67v-400zM524 700h70l-400 -700h-70zM718 211c39 -21 63 -58 63 -104c0 -73 -58 -120 -147 -120s-147 47 -147 120c0 46 24 83 63 104c-30 18 -50 48 -50 86c0 73 61 116 134 116s134 -43 134 -116c0 -38 -20 -68 -50 -86z
M634 344c-40 0 -62 -19 -62 -50c0 -32 22 -53 62 -53c39 0 62 21 62 53c0 31 -23 50 -62 50zM634 58c46 0 72 24 72 59c0 37 -29 59 -72 59c-46 0 -72 -22 -72 -59c0 -35 26 -59 72 -59z" />
    <glyph glyph-name="threeeighths" unicode="&#x215c;" horiz-adv-x="901" 
d="M316 418c0 -80 -59 -131 -149 -131c-73 0 -122 32 -147 86l65 37c15 -35 41 -51 82 -51c47 0 72 23 72 59s-29 60 -73 60h-9l-34 50l84 100h-172v72h263v-66l-84 -100c64 -13 102 -56 102 -116zM621 700h70l-400 -700h-70zM815 211c39 -21 63 -58 63 -104
c0 -73 -58 -120 -147 -120s-147 47 -147 120c0 46 24 83 63 104c-30 18 -50 48 -50 86c0 73 61 116 134 116s134 -43 134 -116c0 -38 -20 -68 -50 -86zM731 344c-40 0 -62 -19 -62 -50c0 -32 22 -53 62 -53c39 0 62 21 62 53c0 31 -23 50 -62 50zM731 58c46 0 72 24 72 59
c0 37 -29 59 -72 59c-46 0 -72 -22 -72 -59c0 -35 26 -59 72 -59z" />
    <glyph glyph-name="fiveeighths" unicode="&#x215d;" horiz-adv-x="889" 
d="M307 417c0 -80 -56 -130 -144 -130c-74 0 -121 32 -146 87l65 36c15 -34 41 -52 80 -52c46 0 71 24 71 60c0 37 -25 63 -71 63h-124l15 219h237v-71h-172l-5 -79h52c84 0 142 -49 142 -133zM609 700h70l-400 -700h-70zM803 211c39 -21 63 -58 63 -104
c0 -73 -58 -120 -147 -120s-147 47 -147 120c0 46 24 83 63 104c-30 18 -50 48 -50 86c0 73 61 116 134 116s134 -43 134 -116c0 -38 -20 -68 -50 -86zM719 344c-40 0 -62 -19 -62 -50c0 -32 22 -53 62 -53c39 0 62 21 62 53c0 31 -23 50 -62 50zM719 58c46 0 72 24 72 59
c0 37 -29 59 -72 59c-46 0 -72 -22 -72 -59c0 -35 26 -59 72 -59z" />
    <glyph glyph-name="seveneighths" unicode="&#x215e;" horiz-adv-x="846" 
d="M277 700v-61l-141 -339h-81l138 328h-185v72h269zM566 700h70l-400 -700h-70zM760 211c39 -21 63 -58 63 -104c0 -73 -58 -120 -147 -120s-147 47 -147 120c0 46 24 83 63 104c-30 18 -50 48 -50 86c0 73 61 116 134 116s134 -43 134 -116c0 -38 -20 -68 -50 -86z
M676 344c-40 0 -62 -19 -62 -50c0 -32 22 -53 62 -53c39 0 62 21 62 53c0 31 -23 50 -62 50zM676 58c46 0 72 24 72 59c0 37 -29 59 -72 59c-46 0 -72 -22 -72 -59c0 -35 26 -59 72 -59z" />
    <glyph glyph-name="asterisk" unicode="*" horiz-adv-x="394" 
d="M337 610v-64l-91 4l53 -73l-57 -34l-45 82l-45 -82l-56 34l52 73l-90 -4v64l90 -5l-52 74l56 34l45 -82l45 82l57 -34l-53 -74z" />
    <glyph glyph-name="backslash" unicode="\" horiz-adv-x="528" 
d="M438 -100l-400 900h52l400 -900h-52z" />
    <glyph glyph-name="periodcentered" unicode="&#xb7;" horiz-adv-x="243" 
d="M121 284c-36 0 -65 29 -65 65s29 65 65 65c37 0 65 -29 65 -65s-28 -65 -65 -65z" />
    <glyph glyph-name="bullet" unicode="&#x2022;" horiz-adv-x="320" 
d="M161 238c-63 0 -113 50 -113 113c0 62 50 112 113 112c62 0 112 -50 112 -112c0 -63 -50 -113 -112 -113z" />
    <glyph glyph-name="colon" unicode=":" horiz-adv-x="243" 
d="M121 382c-36 0 -65 29 -65 65s29 65 65 65c37 0 65 -29 65 -65s-28 -65 -65 -65zM121 -11c-36 0 -65 29 -65 65s29 65 65 65c37 0 65 -29 65 -65s-28 -65 -65 -65z" />
    <glyph glyph-name="comma" unicode="," horiz-adv-x="253" 
d="M196 103l-65 -243h-75l40 243h100z" />
    <glyph glyph-name="ellipsis" unicode="&#x2026;" horiz-adv-x="648" 
d="M121 -11c-36 0 -65 29 -65 65s29 65 65 65c37 0 65 -29 65 -65s-28 -65 -65 -65zM324 -11c-36 0 -65 29 -65 65s29 65 65 65c37 0 65 -29 65 -65s-28 -65 -65 -65zM526 -11c-36 0 -65 29 -65 65s29 65 65 65c37 0 65 -29 65 -65s-28 -65 -65 -65z" />
    <glyph glyph-name="exclam" unicode="!" horiz-adv-x="243" 
d="M88 205l-19 295v200h105v-200l-19 -295h-67zM121 -11c-36 0 -65 29 -65 65s29 65 65 65c37 0 65 -29 65 -65s-28 -65 -65 -65z" />
    <glyph glyph-name="exclamdown" unicode="&#xa1;" horiz-adv-x="243" 
d="M121 511c37 0 65 -29 65 -65s-28 -65 -65 -65c-36 0 -65 29 -65 65s29 65 65 65zM88 295h67l19 -295v-200h-105v200z" />
    <glyph glyph-name="numbersign" unicode="#" horiz-adv-x="605" 
d="M565 405h-116l-18 -110h117l-12 -72h-117l-29 -173h-76l29 173h-122l-29 -173h-77l29 173h-116l12 72h116l18 110h-117l12 73h117l29 172h77l-29 -172h122l29 172h76l-29 -172h116zM355 295l18 110h-122l-18 -110h122z" />
    <glyph glyph-name="period" unicode="." horiz-adv-x="243" 
d="M121 -11c-36 0 -65 29 -65 65s29 65 65 65c37 0 65 -29 65 -65s-28 -65 -65 -65z" />
    <glyph glyph-name="question" unicode="?" horiz-adv-x="539" 
d="M205 205c0 161 184 196 184 315c0 70 -54 103 -124 103c-67 0 -120 -31 -141 -97l-79 44c35 97 125 143 221 143c111 0 216 -64 216 -189c0 -154 -184 -192 -184 -319h-93zM251 -11c-36 0 -65 29 -65 65s29 65 65 65c37 0 65 -29 65 -65s-28 -65 -65 -65z" />
    <glyph glyph-name="questiondown" unicode="&#xbf;" horiz-adv-x="539" 
d="M288 511c36 0 65 -29 65 -65s-29 -65 -65 -65c-37 0 -65 29 -65 65s28 65 65 65zM334 295c0 -161 -184 -196 -184 -315c0 -70 54 -103 124 -103c67 0 120 31 141 97l79 -44c-35 -97 -125 -143 -221 -143c-111 0 -216 64 -216 189c0 154 184 192 184 319h93z" />
    <glyph glyph-name="quotedbl" unicode="&#x22;" horiz-adv-x="333" 
d="M60 490l-12 210h87l-12 -210h-63zM210 490l-12 210h87l-12 -210h-63z" />
    <glyph glyph-name="quotesingle" unicode="'" horiz-adv-x="183" 
d="M60 490l-12 210h87l-12 -210h-63z" />
    <glyph glyph-name="semicolon" unicode=";" horiz-adv-x="256" 
d="M135 382c-36 0 -65 29 -65 65s29 65 65 65c37 0 65 -29 65 -65s-28 -65 -65 -65zM196 103l-65 -243h-75l40 243h100z" />
    <glyph glyph-name="slash" unicode="/" horiz-adv-x="528" 
d="M90 -100h-52l400 900h52z" />
    <glyph glyph-name="underscore" unicode="_" horiz-adv-x="520" 
d="M38 -151v84h445v-84h-445z" />
    <glyph glyph-name="braceleft" unicode="{" horiz-adv-x="356" 
d="M336 -108c-125 -10 -190 48 -190 170v161c0 77 -35 87 -96 86v84c61 -1 96 10 96 86v161c0 123 65 180 190 170v-84c-69 7 -103 -9 -103 -86v-161c0 -73 -26 -110 -72 -128c46 -17 72 -55 72 -128v-161c0 -76 34 -93 103 -86v-84z" />
    <glyph glyph-name="braceright" unicode="}" horiz-adv-x="356" 
d="M20 -108v84c69 -7 103 10 103 86v161c0 73 26 111 72 128c-46 18 -72 55 -72 128v161c0 77 -34 93 -103 86v84c125 10 190 -47 190 -170v-161c0 -76 35 -87 96 -86v-84c-61 1 -96 -9 -96 -86v-161c0 -122 -65 -180 -190 -170z" />
    <glyph glyph-name="bracketleft" unicode="[" horiz-adv-x="290" 
d="M270 716h-125v-732h125v-84h-212v900h212v-84z" />
    <glyph glyph-name="bracketright" unicode="]" horiz-adv-x="290" 
d="M232 800v-900h-212v84h125v732h-125v84h212z" />
    <glyph glyph-name="parenleft" unicode="(" horiz-adv-x="280" 
d="M168 -100c-70 140 -110 290 -110 450s40 310 110 450h87c-70 -140 -110 -290 -110 -450s40 -310 110 -450h-87z" />
    <glyph glyph-name="parenright" unicode=")" horiz-adv-x="280" 
d="M112 -100h-87c70 140 110 290 110 450s-40 310 -110 450h87c70 -140 110 -290 110 -450s-40 -310 -110 -450z" />
    <glyph glyph-name="emdash" unicode="&#x2014;" horiz-adv-x="755" 
d="M75 265v84h605v-84h-605z" />
    <glyph glyph-name="endash" unicode="&#x2013;" horiz-adv-x="655" 
d="M75 265v84h505v-84h-505z" />
    <glyph glyph-name="hyphen" unicode="-" horiz-adv-x="515" 
d="M75 265v84h365v-84h-365z" />
    <glyph glyph-name="guillemotleft" unicode="&#xab;" horiz-adv-x="510" 
d="M272 492l-110 -183l110 -182h-94l-110 182l110 183h94zM442 492l-110 -183l110 -182h-94l-110 182l110 183h94z" />
    <glyph glyph-name="guillemotright" unicode="&#xbb;" horiz-adv-x="510" 
d="M162 492l110 -183l-110 -182h-94l110 182l-110 183h94zM332 492l110 -183l-110 -182h-94l110 182l-110 183h94z" />
    <glyph glyph-name="guilsinglleft" unicode="&#x2039;" horiz-adv-x="340" 
d="M272 492l-110 -183l110 -182h-94l-110 182l110 183h94z" />
    <glyph glyph-name="guilsinglright" unicode="&#x203a;" horiz-adv-x="340" 
d="M162 492l110 -183l-110 -182h-94l110 182l-110 183h94z" />
    <glyph glyph-name="quotedblbase" unicode="&#x201e;" horiz-adv-x="408" 
d="M196 103l-65 -243h-75l40 243h100zM351 103l-65 -243h-75l40 243h100z" />
    <glyph glyph-name="quotedblleft" unicode="&#x201c;" horiz-adv-x="408" 
d="M57 457l65 243h75l-40 -243h-100zM212 457l65 243h75l-40 -243h-100z" />
    <glyph glyph-name="quotedblright" unicode="&#x201d;" horiz-adv-x="408" 
d="M196 701l-65 -243h-75l40 243h100zM351 701l-65 -243h-75l40 243h100z" />
    <glyph glyph-name="quoteleft" unicode="&#x2018;" horiz-adv-x="253" 
d="M57 457l65 243h75l-40 -243h-100z" />
    <glyph glyph-name="quoteright" unicode="&#x2019;" horiz-adv-x="253" 
d="M196 701l-65 -243h-75l40 243h100z" />
    <glyph glyph-name="quotesinglbase" unicode="&#x201a;" horiz-adv-x="253" 
d="M196 103l-65 -243h-75l40 243h100z" />
    <glyph glyph-name="space" unicode=" " horiz-adv-x="250" 
 />
    <glyph glyph-name="cent" unicode="&#xa2;" horiz-adv-x="547" 
d="M452 260l74 -43c-42 -78 -127 -130 -225 -130c-23 0 -45 3 -65 8l-31 -95h-53l36 111c-91 41 -150 131 -150 239c0 148 112 263 263 263c16 0 32 -1 48 -4l29 91h53l-34 -105c56 -21 100 -61 125 -113l-73 -42c-16 33 -43 59 -78 74l-109 -337c13 -3 26 -4 39 -4
c68 0 123 35 151 87zM125 350c0 -68 35 -126 90 -156l107 333c-7 1 -14 1 -21 1c-100 0 -176 -77 -176 -178z" />
    <glyph glyph-name="currency" unicode="&#xa4;" horiz-adv-x="549" 
d="M488 350c0 -51 -17 -97 -46 -133l70 -70l-34 -34l-71 71c-36 -29 -82 -45 -132 -45s-96 16 -133 44l-70 -70l-34 34l69 70c-29 36 -46 82 -46 133s17 97 46 133l-69 70l34 34l70 -70c37 29 83 45 133 45s96 -17 132 -45l71 70l34 -34l-70 -70c29 -36 46 -82 46 -133z
M275 222c72 0 127 56 127 128c0 73 -55 128 -127 128c-73 0 -127 -55 -127 -128c0 -72 54 -128 127 -128z" />
    <glyph glyph-name="dollar" unicode="$" horiz-adv-x="550" 
d="M515 187c0 -111 -82 -185 -194 -198v-89h-63v88c-109 8 -189 62 -223 150l80 46c22 -60 69 -97 143 -105v242c-99 36 -189 76 -189 200c0 112 86 181 189 191v88h63v-89c78 -10 145 -54 180 -134l-78 -44c-20 50 -55 78 -102 87v-230c98 -36 194 -76 194 -203zM161 521
c0 -53 33 -80 97 -107v207c-58 -8 -97 -45 -97 -100zM321 81c65 10 101 51 101 105c0 59 -39 86 -101 112v-217z" />
    <glyph glyph-name="Euro" unicode="&#x20ac;" horiz-adv-x="600" 
d="M499 173l77 -44c-38 -90 -114 -142 -216 -142c-149 0 -244 108 -268 276h-73v65h67v22c0 10 0 21 1 31h-68v64h74c26 163 121 268 267 268c101 0 176 -51 215 -139l-77 -44c-27 60 -73 93 -138 93c-90 0 -152 -63 -173 -178h237v-64h-244c-1 -10 -1 -20 -1 -31v-22h245
v-65h-238c19 -119 81 -185 174 -185c65 0 113 33 139 95z" />
    <glyph glyph-name="florin" unicode="&#x192;" horiz-adv-x="440" 
d="M440 618c-63 26 -113 1 -124 -64l-28 -161h107v-84h-121l-63 -369c-21 -129 -107 -171 -211 -141v85c63 -25 113 0 124 64l62 361h-101v84h115l29 169c21 130 107 172 211 142v-86z" />
    <glyph glyph-name="uni20BD" unicode="&#x20bd;" horiz-adv-x="594" 
d="M356 268h-161v-81h248v-68h-248v-119h-92v119h-85v68h85v81h-85v84h85v348h253c122 0 219 -97 219 -217s-97 -215 -219 -215zM195 613v-261h161c70 0 127 59 127 131s-57 130 -127 130h-161z" />
    <glyph glyph-name="sterling" unicode="&#xa3;" horiz-adv-x="584" 
d="M217 90h353v-90h-532v90h87v194h-70v82h70v134c0 146 107 213 210 213c96 0 165 -53 199 -138l-77 -44c-21 58 -58 92 -121 92c-62 0 -119 -37 -119 -125v-132h222v-82h-222v-194z" />
    <glyph glyph-name="yen" unicode="&#xa5;" horiz-adv-x="584" 
d="M596 700l-207 -348h123v-65h-161l-3 -4v-51h164v-66h-164v-166h-93v166h-183v66h183v52l-2 3h-181v65h143l-207 348h104l190 -328l190 328h104z" />
    <glyph glyph-name="cent.tf" horiz-adv-x="573" 
d="M464 260l74 -43c-42 -78 -127 -130 -225 -130c-23 0 -45 3 -65 8l-31 -95h-53l36 111c-91 41 -150 131 -150 239c0 148 112 263 263 263c16 0 32 -1 48 -4l29 91h53l-34 -105c56 -21 100 -61 125 -113l-73 -42c-16 33 -43 59 -78 74l-109 -337c13 -3 26 -4 39 -4
c68 0 123 35 151 87zM137 350c0 -68 35 -126 90 -156l107 333c-7 1 -14 1 -21 1c-100 0 -176 -77 -176 -178z" />
    <glyph glyph-name="dollar.tf" horiz-adv-x="573" 
d="M538 186c0 -111 -83 -185 -205 -197v-89h-62v88c-117 7 -198 65 -236 160l80 46c23 -68 70 -110 156 -117v242c-109 35 -202 77 -202 203c0 113 89 181 202 190v88h62v-89c86 -10 155 -55 190 -142l-78 -45c-21 56 -57 88 -112 97v-230c109 -35 205 -77 205 -205z
M161 522c0 -55 35 -83 110 -110v211c-70 -7 -110 -45 -110 -101zM333 78c74 9 112 51 112 106c0 60 -39 88 -112 115v-221z" />
    <glyph glyph-name="Euro.tf" horiz-adv-x="573" 
d="M472 184l76 -43c-33 -98 -110 -154 -207 -154c-140 0 -229 108 -251 276h-66v65h60v22c0 10 0 21 1 31h-61v64h67c24 163 112 268 250 268c95 0 169 -52 203 -145l-77 -44c-21 65 -69 99 -126 99c-82 0 -139 -63 -158 -178h221v-64h-227c-1 -10 -1 -20 -1 -31v-22h228
v-65h-222c18 -119 75 -185 159 -185c59 0 109 37 131 106z" />
    <glyph glyph-name="florin.tf" horiz-adv-x="573" 
d="M545 618c-75 26 -121 0 -137 -64l-41 -161h141v-84h-163l-94 -369c-33 -128 -112 -171 -223 -141v85c75 -25 120 0 136 64l92 361h-139v84h161l43 169c33 129 113 172 224 142v-86z" />
    <glyph glyph-name="uni20BD.tf" horiz-adv-x="573" 
d="M326 268h-138v-81h225v-68h-225v-119h-93v119h-85v68h85v81h-85v84h85v348h231c122 0 219 -97 219 -217s-97 -215 -219 -215zM188 613v-261h138c70 0 127 59 127 131s-57 130 -127 130h-138z" />
    <glyph glyph-name="sterling.tf" horiz-adv-x="573" 
d="M210 90h353v-90h-533v90h87v194h-69v82h69v134c0 146 107 213 210 213c97 0 166 -53 200 -138l-78 -44c-21 58 -58 92 -121 92c-61 0 -118 -37 -118 -125v-132h224v-82h-224v-194z" />
    <glyph glyph-name="yen.tf" horiz-adv-x="573" 
d="M567 700l-215 -348h155v-65h-174v-55h174v-66h-174v-166h-93v166h-173v66h173v55h-173v65h155l-216 348h103l178 -292l177 292h103z" />
    <glyph glyph-name="plus" unicode="+" horiz-adv-x="545" 
d="M488 392v-83h-174v-174h-83v174h-173v83h173v173h83v-173h174z" />
    <glyph glyph-name="minus" unicode="&#x2212;" horiz-adv-x="545" 
d="M58 309v83h430v-83h-430z" />
    <glyph glyph-name="multiply" unicode="&#xd7;" horiz-adv-x="485" 
d="M435 485l-135 -135l135 -135l-59 -56l-133 134l-134 -134l-59 56l135 135l-135 135l59 56l134 -133l133 133z" />
    <glyph glyph-name="divide" unicode="&#xf7;" horiz-adv-x="575" 
d="M288 476c-36 0 -64 28 -64 64s28 63 64 63s63 -27 63 -63s-27 -64 -63 -64zM55 309v83h465v-83h-465zM288 97c-36 0 -64 28 -64 64s28 63 64 63s63 -27 63 -63s-27 -64 -63 -64z" />
    <glyph glyph-name="equal" unicode="=" horiz-adv-x="535" 
d="M55 410v83h425v-83h-425zM55 207v83h425v-83h-425z" />
    <glyph glyph-name="notequal" unicode="&#x2260;" horiz-adv-x="535" 
d="M480 410h-156l-53 -120h209v-83h-246l-64 -142h-60l64 142h-119v83h156l53 120h-209v83h246l64 142h60l-64 -142h119v-83z" />
    <glyph glyph-name="greater" unicode="&#x3e;" horiz-adv-x="523" 
d="M55 573l413 -180v-85l-413 -180v94l314 128l-314 129v94z" />
    <glyph glyph-name="less" unicode="&#x3c;" horiz-adv-x="523" 
d="M468 573v-94l-314 -129l314 -128v-94l-413 180v85z" />
    <glyph glyph-name="greaterequal" unicode="&#x2265;" horiz-adv-x="523" 
d="M55 618l413 -160v-82l-413 -159v94l308 106l-308 107v94zM55 85v83h413v-83h-413z" />
    <glyph glyph-name="lessequal" unicode="&#x2264;" horiz-adv-x="523" 
d="M468 618v-94l-308 -107l308 -106v-94l-413 159v82zM55 85v83h413v-83h-413z" />
    <glyph glyph-name="plusminus" unicode="&#xb1;" horiz-adv-x="545" 
d="M314 465h174v-83h-174v-157h-83v157h-173v83h173v158h83v-158zM58 78v83h430v-83h-430z" />
    <glyph glyph-name="approxequal" unicode="&#x2248;" horiz-adv-x="586" 
d="M284 394c-101 58 -137 36 -161 -24l-68 28c34 117 121 153 246 80c98 -56 136 -38 155 32l75 -35c-32 -114 -119 -154 -247 -81zM130 190l-75 35c32 115 121 154 246 81c103 -59 138 -35 162 24l68 -28c-34 -116 -119 -153 -247 -80c-96 55 -135 38 -154 -32z" />
    <glyph glyph-name="asciitilde" unicode="~" horiz-adv-x="596" 
d="M466 424l75 -36c-34 -117 -124 -154 -252 -80c-101 57 -137 40 -159 -32l-75 35c34 117 126 154 251 81c103 -59 138 -41 160 32z" />
    <glyph glyph-name="logicalnot" unicode="&#xac;" horiz-adv-x="530" 
d="M55 392h420v-200h-87v117h-333v83z" />
    <glyph glyph-name="emptyset" unicode="&#x2205;" horiz-adv-x="804" 
d="M656 608c66 -65 108 -157 108 -258c0 -200 -162 -362 -362 -362c-76 0 -146 23 -204 63l-58 -71h-82l91 111c-67 66 -109 158 -109 259c0 200 162 362 362 362c76 0 146 -23 204 -63l58 71h83zM110 350c0 -80 31 -153 83 -206l370 452c-46 31 -101 48 -161 48
c-162 0 -292 -130 -292 -294zM402 56c163 0 292 131 292 294c0 80 -31 153 -82 205l-370 -451c46 -30 101 -48 160 -48z" />
    <glyph glyph-name="infinity" unicode="&#x221e;" horiz-adv-x="803" 
d="M581 515c96 0 168 -69 168 -165s-72 -165 -168 -165c-78 0 -136 51 -179 101c-43 -50 -102 -101 -180 -101c-96 0 -168 69 -168 165s72 165 168 165c78 0 137 -51 180 -101c43 50 101 101 179 101zM224 264c51 0 92 38 127 86c-35 48 -76 86 -127 86
c-49 0 -84 -36 -84 -86s35 -86 84 -86zM579 264c50 0 84 36 84 86s-34 86 -84 86s-91 -38 -126 -86c35 -48 76 -86 126 -86z" />
    <glyph glyph-name="integral" unicode="&#x222b;" horiz-adv-x="440" 
d="M0 -203v86c63 -26 109 -1 120 64l104 614c22 129 103 171 216 141v-85c-72 25 -118 0 -129 -64l-104 -614c-22 -130 -103 -172 -207 -142z" />
    <glyph glyph-name="product" unicode="&#x220f;" horiz-adv-x="640" 
d="M75 -200v900h490v-900h-87v816h-316v-816h-87z" />
    <glyph glyph-name="summation" unicode="&#x2211;" horiz-adv-x="548" 
d="M45 -200v80l231 380l-216 359v81h440v-84h-339l215 -356l-229 -376h368v-84h-470z" />
    <glyph glyph-name="radical" unicode="&#x221a;" horiz-adv-x="655" 
d="M280 0l-132 224h-93v84h143l118 -205l233 697h91l-272 -800h-88z" />
    <glyph glyph-name="uni00B5" unicode="&#xb5;" horiz-adv-x="610" 
d="M544 83h38v-83h-51c-51 0 -87 25 -102 67c-36 -55 -91 -80 -159 -80c-49 0 -88 14 -117 39v-226h-87v700h87v-301c0 -83 47 -129 124 -129c80 0 145 47 145 165v265h87v-382c0 -22 14 -35 35 -35z" />
    <glyph glyph-name="partialdiff" unicode="&#x2202;" horiz-adv-x="579" 
d="M235 713c157 0 289 -142 289 -363c0 -236 -117 -363 -266 -363c-134 0 -210 95 -210 213c0 135 83 231 228 231c52 0 110 -16 160 -48c-10 136 -81 245 -207 246c-43 0 -85 -10 -125 -34v82c39 25 82 36 131 36zM260 71c100 0 164 88 175 230c-47 37 -104 50 -153 50
c-87 0 -147 -52 -147 -150c0 -73 41 -130 125 -130z" />
    <glyph glyph-name="percent" unicode="%" horiz-adv-x="728" 
d="M213 403c-91 0 -158 69 -158 155c0 85 67 155 158 155s158 -69 158 -155s-65 -155 -158 -155zM213 476c48 0 80 37 80 82s-32 81 -80 81c-47 0 -80 -36 -80 -81c0 -46 33 -82 80 -82zM102 99l465 520l49 -27l-466 -521zM515 -12c-91 0 -158 69 -158 155s67 155 158 155
s158 -69 158 -155s-67 -155 -158 -155zM515 62c47 0 80 36 80 81s-33 81 -80 81c-48 0 -80 -36 -80 -81s32 -81 80 -81z" />
    <glyph glyph-name="perthousand" unicode="&#x2030;" horiz-adv-x="1089" 
d="M213 403c-91 0 -158 69 -158 155c0 85 67 155 158 155s158 -69 158 -155s-65 -155 -158 -155zM213 476c48 0 80 37 80 82s-32 81 -80 81c-47 0 -80 -36 -80 -81c0 -46 33 -82 80 -82zM102 99l465 520l49 -27l-466 -521zM515 -12c-91 0 -158 69 -158 155s67 155 158 155
s158 -69 158 -155s-67 -155 -158 -155zM876 -12c-91 0 -158 69 -158 155s67 155 158 155s158 -69 158 -155s-67 -155 -158 -155zM515 62c47 0 80 36 80 81s-33 81 -80 81c-48 0 -80 -36 -80 -81s32 -81 80 -81zM876 62c48 0 80 36 80 81s-32 81 -80 81s-80 -36 -80 -81
s32 -81 80 -81z" />
    <glyph glyph-name="arrowup" unicode="&#x2191;" horiz-adv-x="710" 
d="M655 400v-117l-256 256v-539h-87v540l-257 -257v117l300 300z" />
    <glyph glyph-name="uni2197" unicode="&#x2197;" horiz-adv-x="640" 
d="M161 596h424v-424l-82 -82v363l-387 -387l-61 61l387 387h-363z" />
    <glyph glyph-name="arrowright" unicode="&#x2192;" horiz-adv-x="813" 
d="M458 650l300 -300l-300 -300h-117l258 258h-544v84h544l-258 258h117z" />
    <glyph glyph-name="uni2198" unicode="&#x2198;" horiz-adv-x="640" 
d="M503 590l82 -82v-424h-424l-82 82h363l-387 387l61 60l387 -387v364z" />
    <glyph glyph-name="arrowdown" unicode="&#x2193;" horiz-adv-x="710" 
d="M399 161l256 256v-117l-300 -300l-300 300v117l257 -257v540h87v-539z" />
    <glyph glyph-name="uni2199" unicode="&#x2199;" horiz-adv-x="640" 
d="M585 553l-387 -387h363l-82 -82h-424v424l82 82v-364l387 387z" />
    <glyph glyph-name="arrowleft" unicode="&#x2190;" horiz-adv-x="813" 
d="M758 392v-84h-544l258 -258h-117l-300 300l300 300h117l-258 -258h544z" />
    <glyph glyph-name="uni2196" unicode="&#x2196;" horiz-adv-x="640" 
d="M585 127l-61 -61l-387 387v-363l-82 82v424h424l82 -82h-363z" />
    <glyph glyph-name="arrowboth" unicode="&#x2194;" horiz-adv-x="1055" 
d="M743 608l257 -258l-257 -257h-116l214 215h-628l215 -215h-116l-257 257l257 258h116l-215 -216h629l-215 216h116z" />
    <glyph glyph-name="arrowupdn" unicode="&#x2195;" horiz-adv-x="625" 
d="M570 450l-214 214v-628l214 214v-116l-257 -257l-258 257v116l214 -213v626l-214 -213v116l258 257l257 -257v-116z" />
    <glyph glyph-name="lozenge" unicode="&#x25ca;" horiz-adv-x="545" 
d="M234 0l-186 350l186 350h78l186 -350l-186 -350h-78zM273 104l131 246l-131 246l-132 -246z" />
    <glyph glyph-name="at" unicode="@" horiz-adv-x="789" 
d="M402 612c223 0 350 -177 350 -342c0 -150 -75 -214 -149 -214c-58 0 -103 28 -119 84c-25 -32 -63 -51 -107 -51c-91 0 -157 70 -157 161s66 161 157 161c41 0 76 -17 101 -44v36h77v-221c0 -46 14 -88 63 -88c53 0 101 49 101 176c0 177 -139 312 -317 312
c-183 0 -332 -142 -332 -332c0 -192 149 -332 350 -332c67 0 122 9 170 28v-32c-46 -17 -101 -26 -170 -26c-218 0 -382 152 -382 362c0 200 156 362 364 362zM389 161c49 0 89 35 89 89s-40 89 -89 89c-50 0 -91 -35 -91 -89s41 -89 91 -89z" />
    <glyph glyph-name="ampersand" unicode="&#x26;" horiz-adv-x="662" 
d="M639 29l-78 -45l-71 76c-48 -45 -114 -73 -200 -73c-138 0 -235 77 -235 202c0 83 42 159 128 202c-26 33 -45 72 -45 127c0 120 97 195 206 195c92 0 175 -52 209 -143l-78 -45c-20 61 -69 98 -129 98c-63 0 -115 -41 -115 -104c0 -48 27 -82 62 -119l191 -204
c17 35 29 78 36 127l80 -46c-9 -52 -27 -104 -54 -149zM292 75c56 0 102 17 138 49l-189 203c-69 -29 -93 -84 -93 -132c0 -74 53 -120 144 -120z" />
    <glyph glyph-name="paragraph" unicode="&#xb6;" horiz-adv-x="610" 
d="M568 700v-79h-61v-821h-83v821h-101v-821h-83v490c-114 0 -205 92 -205 205c0 114 91 205 205 205h328z" />
    <glyph glyph-name="section" unicode="&#xa7;" horiz-adv-x="521" 
d="M482 269c0 -50 -24 -94 -63 -124c25 -26 41 -58 41 -102c0 -92 -76 -155 -187 -155c-108 0 -180 47 -213 131l75 43c22 -66 72 -94 138 -94c58 0 100 26 100 75c0 58 -81 85 -161 119c-78 32 -156 77 -156 172c0 52 27 95 68 125c-23 25 -37 57 -37 100
c0 91 77 154 178 154c86 0 155 -44 187 -122l-71 -40c-23 56 -66 81 -116 81c-48 0 -91 -25 -91 -73c0 -57 72 -83 150 -117s158 -78 158 -173zM143 337c0 -53 48 -81 105 -103c35 -13 73 -26 107 -44c27 20 40 46 40 74c0 55 -50 82 -109 106c-33 13 -68 25 -100 42
c-29 -19 -43 -46 -43 -75z" />
    <glyph glyph-name="copyright" unicode="&#xa9;" horiz-adv-x="799" 
d="M400 -12c-200 0 -362 162 -362 362s162 362 362 362s362 -162 362 -362s-162 -362 -362 -362zM400 18c181 0 329 148 329 332s-148 332 -329 332c-182 0 -330 -148 -330 -332s148 -332 330 -332zM403 157c-109 0 -196 86 -196 193s87 193 196 193c71 0 133 -36 165 -94
l-69 -40c-17 37 -56 56 -97 56c-71 0 -114 -56 -114 -115s43 -115 114 -115c42 0 81 20 98 57l69 -41c-32 -57 -95 -94 -166 -94z" />
    <glyph glyph-name="registered" unicode="&#xae;" horiz-adv-x="799" 
d="M400 712c200 0 362 -162 362 -362s-162 -362 -362 -362s-362 162 -362 362s162 362 362 362zM400 18c181 0 329 148 329 332s-148 332 -329 332c-182 0 -330 -148 -330 -332s148 -332 330 -332zM547 415c0 -51 -22 -89 -63 -109l77 -141h-84l-65 125h-6h-48v-125h-77v370
h125c89 0 141 -54 141 -120zM358 463v-103h48c41 0 64 21 64 51c0 33 -23 52 -64 52h-48z" />
    <glyph glyph-name="trademark" unicode="&#x2122;" horiz-adv-x="468" 
d="M198 700v-43h-56v-157h-47v157h-57v43h160zM384 700h46v-200h-46v124l-56 -88h-5l-56 88v-124h-46v200h46l59 -92z" />
    <glyph glyph-name="degree" unicode="&#xb0;" horiz-adv-x="391" 
d="M196 500c-91 0 -158 70 -158 155c0 86 67 155 158 155s158 -69 158 -155c0 -85 -65 -155 -158 -155zM196 575c47 0 79 35 79 80s-32 80 -79 80s-79 -35 -79 -80s32 -80 79 -80z" />
    <glyph glyph-name="bar" unicode="|" horiz-adv-x="237" 
d="M75 -200v920h87v-920h-87z" />
    <glyph glyph-name="brokenbar" unicode="&#xa6;" horiz-adv-x="237" 
d="M75 350v370h87v-370h-87zM75 -200v370h87v-370h-87z" />
    <glyph glyph-name="dagger" unicode="&#x2020;" horiz-adv-x="480" 
d="M425 545v-84h-141v-461h-87v461h-142v84h142v155h87v-155h141z" />
    <glyph glyph-name="daggerdbl" unicode="&#x2021;" horiz-adv-x="480" 
d="M425 461h-141v-222h141v-84h-141v-155h-87v155h-142v84h142v222h-142v84h142v155h87v-155h141v-84z" />
    <glyph glyph-name="estimated" unicode="&#x212e;" horiz-adv-x="810" 
d="M405 710c221 0 370 -161 370 -360c0 -10 -5 -15 -15 -15h-560c-10 0 -15 -5 -15 -15v-192c0 -8 2 -13 7 -19c54 -57 128 -89 233 -89c99 0 177 36 231 97c5 6 10 9 18 9h37c13 0 18 -9 9 -19c-67 -72 -168 -117 -295 -117c-241 0 -390 161 -390 360s149 360 370 360z
M625 572c0 8 -2 13 -7 19c-54 57 -128 89 -213 89s-159 -32 -213 -89c-5 -6 -7 -11 -7 -19v-192c0 -10 5 -15 15 -15h410c10 0 15 5 15 15v192z" />
    <glyph glyph-name="uni2116" unicode="&#x2116;" horiz-adv-x="1024" 
d="M829 402c-91 0 -158 70 -158 155c0 86 67 155 158 155s158 -69 158 -155c0 -85 -65 -155 -158 -155zM510 700h93v-700h-75l-360 523v-523h-93v700h75l360 -522v522zM829 477c47 0 79 35 79 80s-32 80 -79 80s-79 -35 -79 -80s32 -80 79 -80zM683 255v83h292v-83h-292z
" />
    <glyph glyph-name="asciicircum" unicode="^" horiz-adv-x="520" 
d="M299 700l181 -310h-98l-122 212l-122 -212h-98l181 310h78z" />
    <glyph glyph-name="uni0308" unicode="&#x308;" horiz-adv-x="0" 
d="M-262 566c-29 0 -53 24 -53 53s24 52 53 52s52 -23 52 -52s-23 -53 -52 -53zM-72 566c-29 0 -53 24 -53 53s24 52 53 52s52 -23 52 -52s-23 -53 -52 -53z" />
    <glyph glyph-name="uni0307" unicode="&#x307;" horiz-adv-x="0" 
d="M-82 564c-35 0 -63 28 -63 62c0 35 28 63 63 63c34 0 62 -28 62 -63c0 -34 -28 -62 -62 -62z" />
    <glyph glyph-name="gravecomb" unicode="&#x300;" horiz-adv-x="0" 
d="M-20 568l-80 132h-105l101 -132h84z" />
    <glyph glyph-name="acutecomb" unicode="&#x301;" horiz-adv-x="0" 
d="M-205 568h84l101 132h-105z" />
    <glyph glyph-name="uni030B" unicode="&#x30b;" horiz-adv-x="0" 
d="M-350 565h88l79 133h-94zM-197 565h88l89 133h-94z" />
    <glyph glyph-name="uni0302" unicode="&#x302;" horiz-adv-x="0" 
d="M-20 565h-93l-61 81l-61 -81h-93l106 135h96z" />
    <glyph glyph-name="uni030C" unicode="&#x30c;" horiz-adv-x="0" 
d="M-113 700h93l-106 -135h-96l-106 135h93l61 -81z" />
    <glyph glyph-name="uni0306" unicode="&#x306;" horiz-adv-x="0" 
d="M-169 557c-91 0 -149 49 -149 135h81c0 -46 24 -65 68 -65s68 19 68 65h81c0 -86 -56 -135 -149 -135z" />
    <glyph glyph-name="uni030A" unicode="&#x30a;" horiz-adv-x="0" 
d="M-134 546c-67 0 -113 46 -113 107c0 60 46 106 113 106c68 0 113 -46 113 -106c0 -61 -45 -107 -113 -107zM-134 607c32 0 48 20 48 46c0 25 -16 45 -48 45c-30 0 -47 -20 -47 -45c0 -26 17 -46 47 -46z" />
    <glyph glyph-name="tildecomb" unicode="&#x303;" horiz-adv-x="0" 
d="M-317 573c0 135 80 152 154 99c49 -35 72 -46 72 23h73c0 -135 -79 -151 -154 -98c-48 35 -72 46 -72 -24h-73z" />
    <glyph glyph-name="uni0304" unicode="&#x304;" horiz-adv-x="0" 
d="M-290 575v73h270v-73h-270z" />
    <glyph glyph-name="uni0312" unicode="&#x312;" horiz-adv-x="0" 
d="M-85 965l-30 -180h85l10 180h-65z" />
    <glyph glyph-name="uni0326" unicode="&#x326;" horiz-adv-x="0" 
d="M-50 -248l30 180h-85l-10 -180h65z" />
    <glyph glyph-name="uni0327" unicode="&#x327;" horiz-adv-x="0" 
d="M-105 -45c49 -10 85 -38 85 -80c0 -54 -42 -101 -210 -91v66c90 -7 134 6 134 31c0 24 -31 33 -83 36v83h74v-45z" />
    <glyph glyph-name="uni0328" unicode="&#x328;" horiz-adv-x="0" 
d="M-88 -213c-55 0 -87 31 -87 80c0 40 25 88 70 133h83c-42 -40 -68 -84 -68 -114c-1 -21 11 -30 31 -30c12 0 24 2 37 8v-64c-20 -8 -40 -13 -66 -13z" />
    <glyph glyph-name="acute" unicode="&#xb4;" horiz-adv-x="225" 
d="M20 568h84l101 132h-105z" />
    <glyph glyph-name="breve" unicode="&#x2d8;" horiz-adv-x="338" 
d="M169 557c-91 0 -149 49 -149 135h81c0 -46 24 -65 68 -65s68 19 68 65h81c0 -86 -56 -135 -149 -135z" />
    <glyph glyph-name="caron" unicode="&#x2c7;" horiz-adv-x="348" 
d="M235 700h93l-106 -135h-96l-106 135h93l61 -81z" />
    <glyph glyph-name="cedilla" unicode="&#xb8;" horiz-adv-x="250" 
d="M145 -45c49 -10 85 -38 85 -80c0 -54 -42 -101 -210 -91v66c90 -7 134 6 134 31c0 24 -31 33 -83 36v83h74v-45z" />
    <glyph glyph-name="circumflex" unicode="&#x2c6;" horiz-adv-x="348" 
d="M328 565h-93l-61 81l-61 -81h-93l106 135h96z" />
    <glyph glyph-name="dieresis" unicode="&#xa8;" horiz-adv-x="335" 
d="M73 566c-29 0 -53 24 -53 53s24 52 53 52s52 -23 52 -52s-23 -53 -52 -53zM263 566c-29 0 -53 24 -53 53s24 52 53 52s52 -23 52 -52s-23 -53 -52 -53z" />
    <glyph glyph-name="dotaccent" unicode="&#x2d9;" horiz-adv-x="168" 
d="M83 564c-35 0 -63 28 -63 62c0 35 28 63 63 63c34 0 62 -28 62 -63c0 -34 -28 -62 -62 -62z" />
    <glyph glyph-name="grave" unicode="`" horiz-adv-x="225" 
d="M205 568l-80 132h-105l101 -132h84z" />
    <glyph glyph-name="hungarumlaut" unicode="&#x2dd;" horiz-adv-x="370" 
d="M20 565h88l79 133h-94zM173 565h88l89 133h-94z" />
    <glyph glyph-name="macron" unicode="&#xaf;" horiz-adv-x="310" 
d="M20 575v73h270v-73h-270z" />
    <glyph glyph-name="ogonek" unicode="&#x2db;" horiz-adv-x="193" 
d="M107 -213c-55 0 -87 31 -87 80c0 40 25 88 70 133h83c-42 -40 -68 -84 -68 -114c-1 -21 11 -30 31 -30c12 0 24 2 37 8v-64c-20 -8 -40 -13 -66 -13z" />
    <glyph glyph-name="ring" unicode="&#x2da;" horiz-adv-x="266" 
d="M133 546c-67 0 -113 46 -113 107c0 60 46 106 113 106c68 0 113 -46 113 -106c0 -61 -45 -107 -113 -107zM133 607c32 0 48 20 48 46c0 25 -16 45 -48 45c-30 0 -47 -20 -47 -45c0 -26 17 -46 47 -46z" />
    <glyph glyph-name="tilde" unicode="&#x2dc;" horiz-adv-x="340" 
d="M21 573c0 135 80 152 154 99c49 -35 72 -46 72 23h73c0 -135 -79 -151 -154 -98c-48 35 -72 46 -72 -24h-73z" />
    <glyph glyph-name="brevecy" horiz-adv-x="320" 
d="M25 575v76h270v-76h-270z" />
    </font>
</defs>
</svg>
